Action

FERIMANAz Utolsó Emberig

  • Download 5x Faster
  • Download torrent
  • Direct Download
  • Rate this torrent +  |  -
FERIMANAz Utolsó Emberig

Download FREE And Anonymously


Torrent info

Name:FERIMANAz Utolsó Emberig

Total Size: 1.37 GB

Magnet: Magnet Link

Seeds: 2

Leechers: 4

Stream: Watch Full Movie @ Movie4u

Last Updated: 2010-09-29 00:30:16 (Update Now)

Torrent added: 2008-07-27 09:37:51



VPN For Torrents

Torrent Files List


fikli-xvid-azue.00.avi (Size: 1.37 GB) (Files: 2)

 fikli-xvid-azue.00.avi

701.03 MB

 fikli-xvid-azue.01.avi

700.67 MB
 

Announce URL: http://kt-t.hu:2710/86f770d5a99e14e7ac3d5cf65f6a13d0/announce

Torrent description

--English--

A separate seed you may download this film from a server.

I am asking you in order for me to be this in this manner in the future, on this web page click one onto the advertising which can be hit on the left side. I say thank you for it your support!

--Magyar--

Az Utolsó Emberig

Egy külön seed szerverrol tölthetitek le ezt a filmet.

Hogy ez továbbra is így legyek, kérlek, ezen a weblapon kattints egyet a bal oldalon található hirdetésre. Köszönöm a támogatásod!

színes magyarul beszél? amerikai akciófilm, 101 perc, 1996
16 éven aluliak számára nem ajánlott

Tartalom:
John Smith bérgyilkos, akinek se múltja, se jöv?je, csak a maga szabta bels? törvényeknek hajlandó engedelmeskedni. A szesztilalom javában tombol az Egyesült Államokban, amikor megérkezik a mexikói határ mentén fekv? Jerichóba. Jericho arról nevezetes, hogy két rivális banda is megpróbál hasznot húzni az illegális szeszcsempészetb?l és Smith pillanatok alatt mind a kett?vel szembekerül. Egy szép n?, Felina miatt, aki nem másé, mint az egyik bandavezéré.

rendez?: Walter Hill
író: Ryuzo Kikushima, Akira Kurosawa
forgatókönyvíró: Walter Hill
zeneszerz?: Ry Cooder
operat?r: Lloyd Ahern
jelmeztervez?: Dan Moore
producer: Arthur M. Sarkissian, Walter Hill
látványtervez?: Gary Wissner
vágó: Freeman A. Davies

szerepl?(k):
Bruce Willis (John Smith)
Christopher Walken (Hickey)
Bruce Dern (Ed Galt seriff)
David Patrick Kelly (Doyle)
Alexandra Powers (Lucy)
Ned Eisenberg (Fredo Strozzi)
Karina Lombard (Felina)i
Form?tum : AVI
Form?tum/Info : Audio Video Interleave
F?jlm?ret : 1.44GiB
Duration : 1? 45perc
Teljes adatsebess?g : 1952Kbps
K?dol? szoftver : FairUse Wizard - http://fairusewizard.com
Szoftver be?ll?t?sok : The best and REALLY easy backup tool

K?p
Form?tum : MPEG-4 Visual
Format profile : Streaming [email protected]
Format settings, BVOP : Igen
Format settings, QPel : Nem
Format settings, GMC : No warpoints
Format settings, Matrix : Default
Muxing mode : Packet Bitstream
Codec ID : XVID
Codec ID/Hint : XviD
Duration : 1? 45perc
Adatsebess?g : 1687Kbps
Sz?less?g : 688k?ppont
Magass?g : 384k?ppont
K?par?ny : 16/9
K?psebess?g : 25.000fps
Felbont?s : 8bit
Colorimetry : 4:2:0
Scan type : Progressive
Bit/(k?ppont*k?pkocka) : 0.255
Stream size : 1.25GiB
Szoftver be?ll?t?sok : XviD 1.2.0.dev47 (UTC 2006-11-01)

Hang
Form?tum : AC-3
Form?tum/Info : Audio Coding 3
Codec ID : 2000
Duration : 1? 45perc
Adatsebess?g m?d : Constant
Adatsebess?g : 256Kbps
Csatorna : 2csatorna
Channel positions : L R
Mintav?telez?si gyakoris?g : 48.0KHz
Stream size : 193MiB

Képek:
FERIMANAz Utolsó Emberig preview 0
FERIMANAz Utolsó Emberig preview 1

related torrents

Torrent name

health leech seeds Size

Blood+ 14 Utols

0 1 55.00 MB 0
 


comments (0)

Main Menu

 

script data-cfasync="false" src="//d2ghscazvn398x.cloudfront.net/?cshgd=690275">