TV - Other

Klimbim Staffel 3 TV rip xvid

  • Download 5x Faster
  • Download torrent
  • Direct Download
  • Rate this torrent +  |  -
Klimbim Staffel 3 TV rip xvid

Free and Direct Download with Usenet 300GB+ free


Torrent info

Name:Klimbim Staffel 3 TV rip xvid

Total Size: 2.04 GB

Magnet: Magnet Link

Seeds: 0

Leechers: 0

Stream: Watch Online @ Movie4u

Last Updated: 2010-09-06 00:50:12 (Update Now)

Torrent added: 2009-08-23 22:56:25




Torrent Files List


nfo.nfo (Size: 2.04 GB) (Files: 8)

 nfo.nfo

4.51 KB

 Klimbim2.jpg

92.33 KB

 Folge 18.avi

345.67 MB

 Folge 17.avi

351.66 MB

 Folge 16.avi

348.24 MB

 Folge 15.avi

351.04 MB

 Folge 14.avi

351.12 MB

 Folge 13.avi

344.27 MB
 

Announce URL: http://tracker.openbittorrent.com/announce

Torrent description

30 Episoden

Deutsche Erstausstrahlung: 24.07.1973 ARD

13.
Klimbim -

Bild: WDR

Rechtzeitig zur Karnevalszeit schlägt Kölns Klimbim-Crew wieder mit Kalauern und Klamotten-Komik zu. Und wieder
werden (zum drittenmal) sechs Folgen mit Sex produziert. Heute kehrt die fidele Familie aus dem Weltall zurück.
Und in einer Talk-Show ist Dietmar Schönherr zu Gast.

(45 Min.)

Text: Funk Uhr 6/1976, S. 36

Deutsche Erstausstrahlung: 10.02.1976 ARD

14.

Hallo, Sportfans! "Klimbim" überträgt heute das sensationelle Cup-Spiel Eintracht Klimbim gegen Coco Madrid! -
Ferner: Wer glaubt, daß Mönche nur beten und meditieren, wird endlich aufgeklärt: Glockenläuten ist in den Klöstern
ein echtes Arbeitsproblem. Und Gast-Star Wencke Myhre singt ihre Lieder mal ganz anders...

(45 Min.)

Text: Funk Uhr 9/1976, S. 34

Deutsche Erstausstrahlung: 02.03.1976 ARD

15.

Turbulent wie in einem Western-Saloon geht es im "Klimbim"-Massage-Establishment zu. Denn erstens sind die Masseusen
nicht unbedingt Damen, und zweitens fehlt die Diskretion, die man von einem Unternehmen dieser Art erwartet. Auch im
Spionagegewerbe versuchen sich die "Klimbims".

(45 Min.)

Text: Funk Uhr 12/1976, S. 36

Deutsche Erstausstrahlung: 23.03.1976 ARD

16.

Zu Gast bei der Klimbim-Familie ist heute Horst Frank. Mutter Jolanthe will ihn heiraten. Daraus wird natürlich nichts,
sonst wäre er ja kein Gast mehr. Mit von der Partie: Klimbimse Ingrid Steeger und Horst Jüssen. Zu den Klimbims kommen
heute auch Cäsar, Napoleon und andere pseudohistorische Persönlichkeiten.

(45 Min.)

Text: Funk Uhr 15/1976, S. 34

Deutsche Erstausstrahlung: 13.04.1976 ARD

17.

Heiraten heißt die neueste Parole der Klimbims. Und zwar soll Opa dran glauben, weil eine rüstige Generalswitwe einen
seriösen Finanzpartner sucht. Kulturell wird's, wenn Waldemar Kmentt und Benno Kusche 'ne Oper zwitschern, und für die
sportliche Note sorgen Hans Clarin und Horst Jüssen mit ihrem Eintritt in einen Damenfußball-Club.

(45 Min.)

Text: Funk Uhr 18/1976, S. 36

Deutsche Erstausstrahlung: 04.05.1976 ARD

18.

Nun heißt es Abschied nehmen von dem ganzen "Klimbim". Denn wieder mal soll's die letzte Sendung sein - vorläufig
jedenfalls. Als Trostpflaster präsentieren die Macher der Kölner Klamottenkiste ein Staraufgebot wie nie zuvor: Willy
Millowitsch, Maria Schell, Hansjörg Felmy und Heinz Schenk geben sich in dem hochdramatischen Einakter "Die Klempner
kommen" die Türklinke in die Hand. Die kesse Steeger und Horst Buchholz spielen in dieser turbolenten
Verwicklungsgeschichte ebenfalls tragende Rollen.

(45 Min.)

Text: Funk Uhr 21/1976, S. 36

Deutsche Erstausstrahlung: 25.05.1976 ARD


Format : AVI
Format/Info : Audio Video Interleave
Dateigröße : 334 MiB
Duration : 43min
Gesamte Bitrate : 1087 Kbps
verwendete Encoder-Bibliothek : VirtualDub build 15654/release

Format : MPEG-4 Visual
Format settings, BVOP : Ja
Format settings, QPel : Nein
Format settings, GMC : No warppoints
Format settings, Matrix : Default
Muxing mode : Packet Bitstream
Codec ID : DX50
Codec ID/Hint : DivX 5
Duration : 43min
Bitrate : 981 Kbps
Breite : 640 Pixel
Höhe : 480 Pixel
Bildseitenverhältnis : 4/3
Bildwiederholungsrate : 25.000 FPS
Auflösung : 8 bits
Scan type : Progressive
Bits/(Pixel*Frame) : 0.128
Stream size : 302 MiB (90%)
verwendete Encoder-Bibliothek : DivX 5.0.2 (UTC 2002-05-16)

Format : MPEG Audio
Format version : Version 1
Format profile : Layer 3
Codec ID : 55
Codec ID/Hint : MP3
Duration : 43min
Bitraten-Modus : Constant
Bitrate : 96.0 Kbps
Kanäle : 2 Kanäle
Samplingrate : 44.1 KHz
Auflösung : 16 bits
Stream size : 29.5 MiB (9%)
Alignment : Split accross interleaves
Interleave, duration : 40 ms (1.00 video frame)
Interleave, preload duration : 430 ms

related torrents

Torrent name

health leech seeds Size
 

comments (0)

Main Menu