Bleach

Bleach (Ep 212] [Eng Subs] [Xvid] {1337x} Noir

  • Download 5x Faster
  • Download torrent
  • Direct Download
  • Rate this torrent +  |  -
Bleach (Ep 212] [Eng Subs] [Xvid] {1337x} Noir

Free and Direct Download with Usenet.nl 300GB+ free


Torrent info

Name:Bleach (Ep 212] [Eng Subs] [Xvid] {1337x} Noir

Total Size: 199.78 MB

Magnet: Magnet Link

Seeds: 0

Leechers: 0

Stream: Watch Online @ Movie4u

Last Updated: 2010-06-12 15:34:39 (Update Now)

Torrent added: 2009-08-23 22:28:04





Torrent Files List


Torrent downloaded from Demonoid.com.txt (Size: 199.78 MB) (Files: 4)

 Torrent downloaded from Demonoid.com.txt

0.05 KB

 Noir.Nfo

5.12 KB

 Bleach (Ep 212] [Eng Subs] [Xvid] {1337x}-Noir.avi

199.77 MB

 1337x.Org.txt

0.03 KB
 

Announce URL: http://inferno.demonoid.com:3409/announce

Torrent description

[code]


?
?? ??
??? ??? ??
???? ??? ??????????????> ???
??????? ??? ? ??? ?? ??????? ??? ??? ? ????????
???? ??? ? ??? : ???? ???? ????? : ?????? ????
?? : ??? ? ??? ?????. ????: :?????? ???: ??: ??
?? ? ??? ? ??? ????: ?? ???? ??????? ???? ?? ??
?????? ??? ? ??? ????: ?? ???? ??????? ???? ? ?????
?? : ??? ? ??? :???? ??????: :?????: ???: ??
???? ??? ??? ??? ??? ???? ???? ?????????
??????? ??? ??? ?? ?????? ??? ? ??????? ???????????
?? ??
?

**************
* Bleach 212 *
**************


I know i have been releasing the Xvid version very late
But starting the following episode i will be doing it
same day as its released.


________________________
General Information |
________________________|
_______________________________________________________________
Type : Anime
Format : AVI
Format/Info : Audio Video Interleave
File size : 199 Mb
Duration : 24mn 1s
Language : Japanese
Subtitles : English (Hardcoded)- [By dattebayo]
Genre : Action | Adventure | Fantasy | Thriller
IMDB Link : http://www.imdb.com/title/tt0434665/
Rating : 8.9/10
_______________________________________________________________
________________________________________________________________
Video
Format : MPEG-4 Visual
Codec ID/Hint : XviD
Bit rate : 1 041 Kbps
Width : 656 pixels
Height : 368 pixels
Display aspect ratio : 16/9
Frame rate : 23.976 fps
Bits/(Pixel*Frame) : 0.180
Stream size : 179 MiB (90%)
_______________________________________________________________
Audio
Format : MPEG Audio
Codec ID/Hint : MP3
Bit rate : 109 Kbps
Minimum bit rate : 128 Kbps
Channel(s) : 2 channels
Sampling rate : 48.0 KHz
Stream size : 18.7 MiB (9%)
Writing library : LAME3.98r
Encoding settings : ABR
_______________________________________________________________
________________
Description
________________
_______________________________________________________________
High school student Kurosaki Ichigo is unlike any ordinary kid.
Why? Because he can see ghosts. Ever since a young age, he's
been able to see spirits from the afterlife. Ichigo's life
completely changes one day when he and his two sisters are
attacked by an evil, hungry and tormented spirit known as a
Hollow. Right in the nick of time, Ichigo and his siblings
are aided by a Shinigami (Death God) named Kuchiki Rukia,
whose responsibility it is to send good spirits (Pluses) to
the afterlife known as Soul Society, and to purify Hollows
and send them up to Soul Society. But during the fight against
the Hollow, Rukia is injured and must transfer her powers to
Ichigo. With this newly acquired power, so begins Kurosaki
Ichigo's training and duty as a Shinigami to maintain the
balance between the world of the living and the world of
the dead...
_______________________________________________________________

___________________
INFORMATION
___________________
_______________________________________________________________
Im doing this for the handfull of people who can't for whatever
Reason it may be play dattebayo's encoding of bleach because
of the H.264/X.264 Codec.Enjoy the Xvid version.
Hueco Mundo arc started again!!! :) I'll be starting
To release Xvid versions of the entire Arc.
_______________________________________________________________

___________________
Notes
___________________
_______________________________________________________________
Be aware People are starting to use my tag to create fake files
Make sure its a real genuine release from me, I have never and
will never do Cams,Telesyncs,Telecine. I have never and will
never do Rar files. Try to check 1337x.org to see if the file
exist. Fuck the fakers and enjoy my release.
_______________________________________________________________
___________________
Post Information
___________________
_________________________________
Posted by............: Noir
Posted on............: 03/28/2009
_________________________________
[/code]

related torrents

Torrent name

health leech seeds Size
 

comments (0)

Main Menu