TV - Other

IMAX Bears 720p BRRip XviD NSJ Ace HD net

  • Download 5x Faster
  • Download torrent
  • Direct Download
  • Rate this torrent +  |  -
IMAX Bears 720p BRRip XviD NSJ Ace HD net

Free and Direct Download with Usenet 300GB+ free


Torrent info

Name:IMAX Bears 720p BRRip XviD NSJ Ace HD net

Total Size: 972.21 MB

Magnet: Magnet Link

Seeds: 0

Leechers: 0

Stream: Watch Online @ Movie4u

Last Updated: 2010-08-04 07:38:10 (Update Now)

Torrent added: 2009-08-23 22:16:54




Torrent Files List


IMAX.Bears.720p.BRRip.XviD-NSJ.sfv (Size: 972.21 MB) (Files: 23)

 IMAX.Bears.720p.BRRip.XviD-NSJ.sfv

1.07 KB

 IMAX.Bears.720p.BRRip.XviD-NSJ.part21.rar

18.20 MB

 IMAX.Bears.720p.BRRip.XviD-NSJ.part20.rar

47.70 MB

 IMAX.Bears.720p.BRRip.XviD-NSJ.part19.rar

47.70 MB

 IMAX.Bears.720p.BRRip.XviD-NSJ.part18.rar

47.70 MB

 IMAX.Bears.720p.BRRip.XviD-NSJ.part17.rar

47.70 MB

 IMAX.Bears.720p.BRRip.XviD-NSJ.part16.rar

47.70 MB

 IMAX.Bears.720p.BRRip.XviD-NSJ.part15.rar

47.70 MB

 IMAX.Bears.720p.BRRip.XviD-NSJ.part14.rar

47.70 MB

 IMAX.Bears.720p.BRRip.XviD-NSJ.part13.rar

47.70 MB

 IMAX.Bears.720p.BRRip.XviD-NSJ.part12.rar

47.70 MB

 IMAX.Bears.720p.BRRip.XviD-NSJ.part11.rar

47.70 MB

 IMAX.Bears.720p.BRRip.XviD-NSJ.part10.rar

47.70 MB

 IMAX.Bears.720p.BRRip.XviD-NSJ.part09.rar

47.70 MB

 IMAX.Bears.720p.BRRip.XviD-NSJ.part08.rar

47.70 MB

 IMAX.Bears.720p.BRRip.XviD-NSJ.part07.rar

47.70 MB

 IMAX.Bears.720p.BRRip.XviD-NSJ.part06.rar

47.70 MB

 IMAX.Bears.720p.BRRip.XviD-NSJ.part05.rar

47.70 MB

 IMAX.Bears.720p.BRRip.XviD-NSJ.part04.rar

47.70 MB

 IMAX.Bears.720p.BRRip.XviD-NSJ.part03.rar

47.70 MB

 IMAX.Bears.720p.BRRip.XviD-NSJ.part02.rar

47.70 MB

 IMAX.Bears.720p.BRRip.XviD-NSJ.part01.rar

47.70 MB

 IMAX.Bears.720p.BRRip.XviD-NSJ.nfo

5.31 KB
 

Announce URL: http://www.ace-hd.net/announce.php

Torrent description

IMAX.Bears.720p.BRRip.XviD-NSJ

Format: AVI
Format/Info: Audio Video Interleave
File size: 967 MiB
Duration: 39mn 14s
Overall bit rate: 3 446 Kbps
Writing application: VirtualDubMod 1.5.10.2 (build 2542/release)
Writing library: VirtualDubMod build 2542/release

Video
Format: MPEG-4 Visual
Format profile: Streaming [email protected]
Format settings, BVOP: Yes
Format settings, QPel: No
Format settings, GMC: No warppoints
Format settings, Matrix: Default
Muxing mode: Packed bitstream
Codec ID: XVID
Codec ID/Hint: XviD
Duration: 39mn 14s
Bit rate: 2 989 Kbps
Width: 1 280 pixels
Height: 720 pixels
Display aspect ratio: 16/9
Frame rate: 23.976 fps
Resolution: 24 bits
Colorimetry: 4:2:0
Scan type: Progressive
Bits/(Pixel*Frame): 0.135
Stream size: 839 MiB (87%)
Writing library: XviD 1.2.1 (UTC 2008-12-04)

Audio
Format: AC-3
Format/Info: Audio Coding 3
Codec ID: 2000
Duration: 39mn 14s
Bit rate mode: Constant
Bit rate: 448 Kbps
Channel(s): 6 channels
Channel positions: Front: L C R, Surround: L R, LFE
Sampling rate: 48.0 KHz
Stream size: 126 MiB (13%)
Alignment: Split accross interleaves
Interleave, duration: 42 ms (1.00 video frame)
Interleave, preload duration: 500 ms

related torrents

Torrent name

health leech seeds Size
 

comments (0)

Main Menu