TV - Other

Ice Road Truckers S1 TVRip Xvid[

  • Download 5x Faster
  • Download torrent
  • Direct Download
  • Rate this torrent +  |  -
Ice Road Truckers S1 TVRip Xvid[

Anonymous and Free Direct Download 300GB+


Torrent info

Name:Ice Road Truckers S1 TVRip Xvid[

Total Size: 3.75 GB

Magnet: Magnet Link

Seeds: 0

Leechers: 0

Stream: Watch Online @ Movie4u

Last Updated: 2010-08-05 22:57:16 (Update Now)

Torrent added: 2009-08-23 22:13:06



VPN For Torrents

Torrent Files List


Ice Road Truckers.part81.rar (Size: 3.75 GB) (Files: 83)

 Ice Road Truckers.part81.rar

20.73 MB

 Ice Road Truckers.part80.rar

47.68 MB

 Ice Road Truckers.part79.rar

47.68 MB

 Ice Road Truckers.part78.rar

47.68 MB

 Ice Road Truckers.part77.rar

47.68 MB

 Ice Road Truckers.part76.rar

47.68 MB

 Ice Road Truckers.part75.rar

47.68 MB

 Ice Road Truckers.part74.rar

47.68 MB

 Ice Road Truckers.part73.rar

47.68 MB

 Ice Road Truckers.part72.rar

47.68 MB

 Ice Road Truckers.part71.rar

47.68 MB

 Ice Road Truckers.part70.rar

47.68 MB

 Ice Road Truckers.part69.rar

47.68 MB

 Ice Road Truckers.part68.rar

47.68 MB

 Ice Road Truckers.part67.rar

47.68 MB

 Ice Road Truckers.part66.rar

47.68 MB

 Ice Road Truckers.part65.rar

47.68 MB

 Ice Road Truckers.part64.rar

47.68 MB

 Ice Road Truckers.part63.rar

47.68 MB

 Ice Road Truckers.part62.rar

47.68 MB

 Ice Road Truckers.part61.rar

47.68 MB

 Ice Road Truckers.part60.rar

47.68 MB

 Ice Road Truckers.part58.rar

47.68 MB

 Ice Road Truckers.part59.rar

47.68 MB

 Ice Road Truckers.part57.rar

47.68 MB

 Ice Road Truckers.part56.rar

47.68 MB

 Ice Road Truckers.part55.rar

47.68 MB

 Ice Road Truckers.part54.rar

47.68 MB

 Ice Road Truckers.part53.rar

47.68 MB

 Ice Road Truckers.part52.rar

47.68 MB

 Ice Road Truckers.part51.rar

47.68 MB

 Ice Road Truckers.part50.rar

47.68 MB

 Ice Road Truckers.part49.rar

47.68 MB

 Ice Road Truckers.part48.rar

47.68 MB

 Ice Road Truckers.part47.rar

47.68 MB

 Ice Road Truckers.part46.rar

47.68 MB

 Ice Road Truckers.part45.rar

47.68 MB

 Ice Road Truckers.part44.rar

47.68 MB

 Ice Road Truckers.part43.rar

47.68 MB

 Ice Road Truckers.part42.rar

47.68 MB

 Ice Road Truckers.part41.rar

47.68 MB

 Ice Road Truckers.part40.rar

47.68 MB

 Ice Road Truckers.part39.rar

47.68 MB

 Ice Road Truckers.part38.rar

47.68 MB

 Ice Road Truckers.part37.rar

47.68 MB

 Ice Road Truckers.part36.rar

47.68 MB

 Ice Road Truckers.part35.rar

47.68 MB

 Ice Road Truckers.part34.rar

47.68 MB

 Ice Road Truckers.part33.rar

47.68 MB

 Ice Road Truckers.part32.rar

47.68 MB

 Ice Road Truckers.part31.rar

47.68 MB

 Ice Road Truckers.part30.rar

47.68 MB

 Ice Road Truckers.part29.rar

47.68 MB

 Ice Road Truckers.part28.rar

47.68 MB

 Ice Road Truckers.part27.rar

47.68 MB

 Ice Road Truckers.part26.rar

47.68 MB

 Ice Road Truckers.part25.rar

47.68 MB

 Ice Road Truckers.part24.rar

47.68 MB

 Ice Road Truckers.part23.rar

47.68 MB

 Ice Road Truckers.part22.rar

47.68 MB

 Ice Road Truckers.part21.rar

47.68 MB

 Ice Road Truckers.part20.rar

47.68 MB

 Ice Road Truckers.part19.rar

47.68 MB

 Ice Road Truckers.part18.rar

47.68 MB

 Ice Road Truckers.part17.rar

47.68 MB

 Ice Road Truckers.part16.rar

47.68 MB

 Ice Road Truckers.part15.rar

47.68 MB

 Ice Road Truckers.part14.rar

47.68 MB

 Ice Road Truckers.part13.rar

47.68 MB

 Ice Road Truckers.part12.rar

47.68 MB

 Ice Road Truckers.part11.rar

47.68 MB

 Ice Road Truckers.part10.rar

47.68 MB

 Ice Road Truckers.part09.rar

47.68 MB

 Ice Road Truckers.part08.rar

47.68 MB

 Ice Road Truckers.part07.rar

47.68 MB

 Ice Road Truckers.part06.rar

47.68 MB

 Ice Road Truckers.part05.rar

47.68 MB

 Ice Road Truckers.part04.rar

47.68 MB

 Ice Road Truckers.part03.rar

47.68 MB

 Ice Road Truckers.part02.rar

47.68 MB

 Ice Road Truckers.part01.rar

47.68 MB

 Ice Road Truckers Season 1.sfv

8.50 KB

 Ice Road Truckers Season 1.nfo

22.88 KB
 

Announce URL: http://tracker.ilovetorrents.com/announce.php

Torrent description

General
Complete name : L:\Torrent Schijf\10 - Docu's\Ice Road Truckers\Ice Road Truckers s01e01.avi
Format : AVI
Format/Info : Audio Video Interleave
File size : 348 MiB
Duration : 44mn 57s
Overal bit rate : 1082 Kbps
Writing application : Nandub v1.0rc2
Writing library : Nandub build 1853/release

Video
Format : MPEG-4 Visual
Format profile : Streaming [email protected]
Format settings, BVOP : Yes
Format settings, QPel : No
Format settings, GMC : No warppoints
Format settings, Matrix : Default
Muxing mode : Packet Bitstream
Codec ID : XVID
Codec ID/Hint : XviD
Duration : 44mn 57s
Bit rate : 938 Kbps
Width : 624 pixels
Height : 352 pixels
Display aspect ratio : 16/9
Frame rate : 29.970 fps
Resolution : 8 bits
Colorimetry : 4:2:0
Scan type : Progressive
Bits/(Pixel*Frame) : 0.143
Stream size : 302 MiB
Writing library : XviD 1.2.0SMP (UTC 2006-01-08)

Audio
Format : MPEG Audio
Format version : Version 1
Format profile : Layer 3
Codec ID : 55
Codec ID/Hint : MP3
Duration : 44mn 57s
Bit rate mode : Variable
Bit rate : 130 Kbps
Nominal bit rate : 128 Kbps
Channel(s) : 2 channels
Sampling rate : 48.0 KHz
Resolution : 16 bits
Stream size : 41.8 MiB
Writing library : LAME3.90.
Encoding settings : ABR

For the other episodes see the nfo

related torrents

Torrent name

health leech seeds Size
 


comments (0)

Main Menu