TV - Other

Ice Road Truckers Season 2[

  • Download 5x Faster
  • Download torrent
  • Direct Download
  • Rate this torrent +  |  -
Ice Road Truckers Season 2[

Anonymous and Direct Download 300GB+ free


Torrent info

Name:Ice Road Truckers Season 2[

Total Size: 4.79 GB

Magnet: Magnet Link

Seeds: 0

Leechers: 0

Stream: Watch Online @ Movie4u

Last Updated: 2010-07-18 08:28:42 (Update Now)

Torrent added: 2009-08-23 22:11:58




Torrent Files List


Ice Road Truckers Season 2.nfo (Size: 4.79 GB) (Files: 105)

 Ice Road Truckers Season 2.nfo

28.42 KB

 Ice Road Truckers 2.part103.rar

46.23 MB

 Ice Road Truckers 2.part102.rar

47.68 MB

 Ice Road Truckers 2.part101.rar

47.68 MB

 Ice Road Truckers 2.part100.rar

47.68 MB

 Ice Road Truckers 2.part099.rar

47.68 MB

 Ice Road Truckers 2.part098.rar

47.68 MB

 Ice Road Truckers 2.part097.rar

47.68 MB

 Ice Road Truckers 2.part096.rar

47.68 MB

 Ice Road Truckers 2.part095.rar

47.68 MB

 Ice Road Truckers 2.part094.rar

47.68 MB

 Ice Road Truckers 2.part093.rar

47.68 MB

 Ice Road Truckers 2.part092.rar

47.68 MB

 Ice Road Truckers 2.part091.rar

47.68 MB

 Ice Road Truckers 2.part090.rar

47.68 MB

 Ice Road Truckers 2.part089.rar

47.68 MB

 Ice Road Truckers 2.part088.rar

47.68 MB

 Ice Road Truckers 2.part087.rar

47.68 MB

 Ice Road Truckers 2.part086.rar

47.68 MB

 Ice Road Truckers 2.part085.rar

47.68 MB

 Ice Road Truckers 2.part084.rar

47.68 MB

 Ice Road Truckers 2.part083.rar

47.68 MB

 Ice Road Truckers 2.part082.rar

47.68 MB

 Ice Road Truckers 2.part081.rar

47.68 MB

 Ice Road Truckers 2.part080.rar

47.68 MB

 Ice Road Truckers 2.part079.rar

47.68 MB

 Ice Road Truckers 2.part078.rar

47.68 MB

 Ice Road Truckers 2.part077.rar

47.68 MB

 Ice Road Truckers 2.part076.rar

47.68 MB

 Ice Road Truckers 2.part075.rar

47.68 MB

 Ice Road Truckers 2.part074.rar

47.68 MB

 Ice Road Truckers 2.part073.rar

47.68 MB

 Ice Road Truckers 2.part072.rar

47.68 MB

 Ice Road Truckers 2.part071.rar

47.68 MB

 Ice Road Truckers 2.part070.rar

47.68 MB

 Ice Road Truckers 2.part069.rar

47.68 MB

 Ice Road Truckers 2.part068.rar

47.68 MB

 Ice Road Truckers 2.part067.rar

47.68 MB

 Ice Road Truckers 2.part066.rar

47.68 MB

 Ice Road Truckers 2.part065.rar

47.68 MB

 Ice Road Truckers 2.part064.rar

47.68 MB

 Ice Road Truckers 2.part063.rar

47.68 MB

 Ice Road Truckers 2.part062.rar

47.68 MB

 Ice Road Truckers 2.part061.rar

47.68 MB

 Ice Road Truckers 2.part060.rar

47.68 MB

 Ice Road Truckers 2.part059.rar

47.68 MB

 Ice Road Truckers 2.part058.rar

47.68 MB

 Ice Road Truckers 2.part057.rar

47.68 MB

 Ice Road Truckers 2.part056.rar

47.68 MB

 Ice Road Truckers 2.part055.rar

47.68 MB

 Ice Road Truckers 2.part054.rar

47.68 MB

 Ice Road Truckers 2.part053.rar

47.68 MB

 Ice Road Truckers 2.part052.rar

47.68 MB

 Ice Road Truckers 2.part051.rar

47.68 MB

 Ice Road Truckers 2.part050.rar

47.68 MB

 Ice Road Truckers 2.part049.rar

47.68 MB

 Ice Road Truckers 2.part048.rar

47.68 MB

 Ice Road Truckers 2.part047.rar

47.68 MB

 Ice Road Truckers 2.part046.rar

47.68 MB

 Ice Road Truckers 2.part045.rar

47.68 MB

 Ice Road Truckers 2.part044.rar

47.68 MB

 Ice Road Truckers 2.part043.rar

47.68 MB

 Ice Road Truckers 2.part042.rar

47.68 MB

 Ice Road Truckers 2.part041.rar

47.68 MB

 Ice Road Truckers 2.part040.rar

47.68 MB

 Ice Road Truckers 2.part039.rar

47.68 MB

 Ice Road Truckers 2.part038.rar

47.68 MB

 Ice Road Truckers 2.part037.rar

47.68 MB

 Ice Road Truckers 2.part036.rar

47.68 MB

 Ice Road Truckers 2.part035.rar

47.68 MB

 Ice Road Truckers 2.part034.rar

47.68 MB

 Ice Road Truckers 2.part033.rar

47.68 MB

 Ice Road Truckers 2.part032.rar

47.68 MB

 Ice Road Truckers 2.part031.rar

47.68 MB

 Ice Road Truckers 2.part030.rar

47.68 MB

 Ice Road Truckers 2.part029.rar

47.68 MB

 Ice Road Truckers 2.part028.rar

47.68 MB

 Ice Road Truckers 2.part027.rar

47.68 MB

 Ice Road Truckers 2.part026.rar

47.68 MB

 Ice Road Truckers 2.part025.rar

47.68 MB

 Ice Road Truckers 2.part024.rar

47.68 MB

 Ice Road Truckers 2.part023.rar

47.68 MB

 Ice Road Truckers 2.part022.rar

47.68 MB

 Ice Road Truckers 2.part021.rar

47.68 MB

 Ice Road Truckers 2.part020.rar

47.68 MB

 Ice Road Truckers 2.part019.rar

47.68 MB

 Ice Road Truckers 2.part018.rar

47.68 MB

 Ice Road Truckers 2.part017.rar

47.68 MB

 Ice Road Truckers 2.part016.rar

47.68 MB

 Ice Road Truckers 2.part015.rar

47.68 MB

 Ice Road Truckers 2.part014.rar

47.68 MB

 Ice Road Truckers 2.part013.rar

47.68 MB

 Ice Road Truckers 2.part012.rar

47.68 MB

 Ice Road Truckers 2.part011.rar

47.68 MB

 Ice Road Truckers 2.part010.rar

47.68 MB

 Ice Road Truckers 2.part009.rar

47.68 MB

 Ice Road Truckers 2.part008.rar

47.68 MB

 Ice Road Truckers 2.part007.rar

47.68 MB

 Ice Road Truckers 2.part006.rar

47.68 MB

 Ice Road Truckers 2.part005.rar

47.68 MB

 Ice Road Truckers 2.part004.rar

47.68 MB

 Ice Road Truckers 2.part003.rar

47.68 MB

 Ice Road Truckers 2.part002.rar

47.68 MB

 Ice Road Truckers 2.part001.sfv

11.36 KB

 Ice Road Truckers 2.part001.rar

47.68 MB
 

Announce URL: http://tracker.ilovetorrents.com/announce.php

Torrent description

General
Complete name : ice.road.truckers.s02.Special.Road.to.the.Finale.avi
Format : AVI
Format/Info : Audio Video Interleave
File size : 350 MiB
Duration : 44mn 45s
Overal bit rate : 1095 Kbps
Writing application : transcode-0.6.9

Video
Format : MPEG-4 Visual
Format profile : Streaming [email protected]
Format settings, BVOP : Yes
Format settings, QPel : No
Format settings, GMC : No warppoints
Format settings, Matrix : Default
Muxing mode : Packet Bitstream
Codec ID : XVID
Codec ID/Hint : XviD
Duration : 44mn 45s
Bit rate : 955 Kbps
Width : 624 pixels
Height : 352 pixels
Display aspect ratio : 16/9
Frame rate : 29.970 fps
Resolution : 8 bits
Colorimetry : 4:2:0
Scan type : Progressive
Bits/(Pixel*Frame) : 0.145
Stream size : 306 MiB
Writing library : XviD 1.1.2 (UTC 2006-11-01)

Audio
Format : MPEG Audio
Format version : Version 1
Format profile : Layer 3
Codec ID : 55
Codec ID/Hint : MP3
Duration : 44mn 45s
Bit rate mode : Variable
Bit rate : 126 Kbps
Minimum bit rate : 131 Kbps
Channel(s) : 2 channels
Sampling rate : 48.0 KHz
Resolution : 16 bits
Stream size : 40.2 MiB
Writing library : LAME3.98b
Encoding settings : ABR

General
Complete name : ice.road.truckers.s02e01.avi
Format : AVI
Format/Info : Audio Video Interleave
File size : 351 MiB
Duration : 44mn 8s
Overal bit rate : 1113 Kbps
Writing application : Nandub v1.0rc2
Writing library : Nandub build 1853/release

Video
Format : MPEG-4 Visual
Format profile : Streaming [email protected]
Format settings, BVOP : Yes
Format settings, QPel : No
Format settings, GMC : No warppoints
Format settings, Matrix : Default
Codec ID : XVID
Codec ID/Hint : XviD
Duration : 44mn 8s
Bit rate : 959 Kbps
Width : 624 pixels
Height : 352 pixels
Display aspect ratio : 16/9
Frame rate : 29.970 fps
Resolution : 8 bits
Colorimetry : 4:2:0
Scan type : Progressive
Bits/(Pixel*Frame) : 0.146
Stream size : 303 MiB
Writing library : XviD 1.1.2 (UTC 2006-11-01)

Audio
Format : MPEG Audio
Format version : Version 1
Format profile : Layer 3
Codec ID : 55
Codec ID/Hint : MP3
Duration : 44mn 8s
Bit rate mode : Variable
Bit rate : 140 Kbps
Minimum bit rate : 135 Kbps
Channel(s) : 2 channels
Sampling rate : 48.0 KHz
Resolution : 16 bits
Stream size : 44.2 MiB
Writing library : LAME3.96
Encoding settings : ABR

General
Complete name : ice.road.truckers.s02e02.avi
Format : AVI
Format/Info : Audio Video Interleave
File size : 352 MiB
Duration : 45mn 48s
Overal bit rate : 1073 Kbps
Writing application : Nandub v1.0rc2
Writing library : Nandub build 1853/release

Video
Format : MPEG-4 Visual
Format profile : Streaming [email protected]
Format settings, BVOP : Yes
Format settings, QPel : No
Format settings, GMC : No warppoints
Format settings, Matrix : Default
Codec ID : XVID
Codec ID/Hint : XviD
Duration : 45mn 48s
Bit rate : 919 Kbps
Width : 624 pixels
Height : 352 pixels
Display aspect ratio : 16/9
Frame rate : 29.970 fps
Resolution : 8 bits
Colorimetry : 4:2:0
Scan type : Progressive
Bits/(Pixel*Frame) : 0.140
Stream size : 301 MiB
Writing library : XviD 1.1.2 (UTC 2006-11-01)

Audio
Format : MPEG Audio
Format version : Version 1
Format profile : Layer 3
Codec ID : 55
Codec ID/Hint : MP3
Duration : 45mn 48s
Bit rate mode : Variable
Bit rate : 140 Kbps
Minimum bit rate : 135 Kbps
Channel(s) : 2 channels
Sampling rate : 48.0 KHz
Resolution : 16 bits
Stream size : 45.8 MiB
Writing library : LAME3.96
Encoding settings : ABR

General
Complete name : ice.road.truckers.s02e03.avi
Format : AVI
Format/Info : Audio Video Interleave
File size : 351 MiB
Duration : 44mn 39s
Overal bit rate : 1100 Kbps
Writing application : Nandub v1.0rc2
Writing library : Nandub build 1853/release

Video
Format : MPEG-4 Visual
Format profile : Streaming [email protected]
Format settings, BVOP : Yes
Format settings, QPel : No
Format settings, GMC : No warppoints
Format settings, Matrix : Default
Codec ID : XVID
Codec ID/Hint : XviD
Duration : 44mn 39s
Bit rate : 947 Kbps
Width : 624 pixels
Height : 352 pixels
Display aspect ratio : 16/9
Frame rate : 29.970 fps
Resolution : 8 bits
Colorimetry : 4:2:0
Scan type : Progressive
Bits/(Pixel*Frame) : 0.144
Stream size : 302 MiB
Writing library : XviD 1.1.2 (UTC 2006-11-01)

Audio
Format : MPEG Audio
Format version : Version 1
Format profile : Layer 3
Codec ID : 55
Codec ID/Hint : MP3
Duration : 44mn 39s
Bit rate mode : Variable
Bit rate : 139 Kbps
Minimum bit rate : 134 Kbps
Channel(s) : 2 channels
Sampling rate : 48.0 KHz
Resolution : 16 bits
Stream size : 44.3 MiB
Writing library : LAME3.96
Encoding settings : ABR

General
Complete name : ice.road.truckers.s02e04.avi
Format : AVI
Format/Info : Audio Video Interleave
File size : 351 MiB
Duration : 44mn 6s
Overal bit rate : 1111 Kbps
Writing application : Nandub v1.0rc2
Writing library : Nandub build 1852/release

Video
Format : MPEG-4 Visual
Format profile : Streaming [email protected]
Format settings, BVOP : Yes
Format settings, QPel : No
Format settings, GMC : No warppoints
Format settings, Matrix : Default
Codec ID : XVID
Codec ID/Hint : XviD
Duration : 44mn 6s
Bit rate : 975 Kbps
Width : 624 pixels
Height : 352 pixels
Display aspect ratio : 16/9
Frame rate : 29.970 fps
Resolution : 8 bits
Colorimetry : 4:2:0
Scan type : Progressive
Bits/(Pixel*Frame) : 0.148
Stream size : 308 MiB
Writing library : XviD 1.2.0SMP (UTC 2006-01-08)

Audio
Format : MPEG Audio
Format version : Version 1
Format profile : Layer 3
Codec ID : 55
Codec ID/Hint : MP3
Duration : 44mn 6s
Bit rate mode : Variable
Bit rate : 122 Kbps
Minimum bit rate : 128 Kbps
Channel(s) : 2 channels
Sampling rate : 48.0 KHz
Resolution : 16 bits
Stream size : 38.6 MiB
Writing library : LAME3.97
Encoding settings : ABR

General
Complete name : ice.road.truckers.s02e05.avi
Format : AVI
Format/Info : Audio Video Interleave
File size : 351 MiB
Duration : 44mn 40s
Overal bit rate : 1099 Kbps
Writing application : Nandub v1.0rc2
Writing library : Nandub build 1853/release

Video
Format : MPEG-4 Visual
Format profile : Streaming [email protected]
Format settings, BVOP : Yes
Format settings, QPel : No
Format settings, GMC : No warppoints
Format settings, Matrix : Default
Codec ID : XVID
Codec ID/Hint : XviD
Duration : 44mn 40s
Bit rate : 945 Kbps
Width : 624 pixels
Height : 352 pixels
Display aspect ratio : 16/9
Frame rate : 29.970 fps
Resolution : 8 bits
Colorimetry : 4:2:0
Scan type : Progressive
Bits/(Pixel*Frame) : 0.144
Stream size : 302 MiB
Writing library : XviD 1.1.2 (UTC 2006-11-01)

Audio
Format : MPEG Audio
Format version : Version 1
Format profile : Layer 3
Codec ID : 55
Codec ID/Hint : MP3
Duration : 44mn 40s
Bit rate mode : Variable
Bit rate : 141 Kbps
Minimum bit rate : 136 Kbps
Channel(s) : 2 channels
Sampling rate : 48.0 KHz
Resolution : 16 bits
Stream size : 44.9 MiB
Writing library : LAME3.96
Encoding settings : ABR

General
Complete name : ice.road.truckers.s02e06.avi
Format : AVI
Format/Info : Audio Video Interleave
File size : 351 MiB
Duration : 44mn 33s
Overal bit rate : 1102 Kbps
Writing application : Nandub v1.0rc2
Writing library : Nandub build 1853/release

Video
Format : MPEG-4 Visual
Format profile : Streaming [email protected]
Format settings, BVOP : Yes
Format settings, QPel : No
Format settings, GMC : No warppoints
Format settings, Matrix : Default
Codec ID : XVID
Codec ID/Hint : XviD
Duration : 44mn 33s
Bit rate : 948 Kbps
Width : 624 pixels
Height : 352 pixels
Display aspect ratio : 16/9
Frame rate : 29.970 fps
Resolution : 8 bits
Colorimetry : 4:2:0
Scan type : Progressive
Bits/(Pixel*Frame) : 0.144
Stream size : 302 MiB
Writing library : XviD 1.1.2 (UTC 2006-11-01)

Audio
Format : MPEG Audio
Format version : Version 1
Format profile : Layer 3
Codec ID : 55
Codec ID/Hint : MP3
Duration : 44mn 33s
Bit rate mode : Variable
Bit rate : 140 Kbps
Minimum bit rate : 135 Kbps
Channel(s) : 2 channels
Sampling rate : 48.0 KHz
Resolution : 16 bits
Stream size : 44.6 MiB
Writing library : LAME3.96
Encoding settings : ABR

General
Complete name : ice.road.truckers.s02e07.avi
Format : AVI
Format/Info : Audio Video Interleave
File size : 352 MiB
Duration : 44mn 29s
Overal bit rate : 1105 Kbps
Writing application : Nandub v1.0rc2
Writing library : Nandub build 1853/release

Video
Format : MPEG-4 Visual
Format profile : Streaming [email protected]
Format settings, BVOP : Yes
Format settings, QPel : No
Format settings, GMC : No warppoints
Format settings, Matrix : Default
Codec ID : XVID
Codec ID/Hint : XviD
Duration : 44mn 29s
Bit rate : 950 Kbps
Width : 624 pixels
Height : 352 pixels
Display aspect ratio : 16/9
Frame rate : 29.970 fps
Resolution : 8 bits
Colorimetry : 4:2:0
Scan type : Progressive
Bits/(Pixel*Frame) : 0.144
Stream size : 303 MiB
Writing library : XviD 1.1.2 (UTC 2006-11-01)

Audio
Format : MPEG Audio
Format version : Version 1
Format profile : Layer 3
Codec ID : 55
Codec ID/Hint : MP3
Duration : 44mn 29s
Bit rate mode : Variable
Bit rate : 140 Kbps
Minimum bit rate : 135 Kbps
Channel(s) : 2 channels
Sampling rate : 48.0 KHz
Resolution : 16 bits
Stream size : 44.7 MiB
Writing library : LAME3.96
Encoding settings : ABR

General
Complete name : ice.road.truckers.s02e08.avi
Format : AVI
Format/Info : Audio Video Interleave
File size : 351 MiB
Duration : 44mn 41s
Overal bit rate : 1098 Kbps
Writing application : Nandub v1.0rc2
Writing library : Nandub build 1853/release

Video
Format : MPEG-4 Visual
Format profile : Streaming [email protected]
Format settings, BVOP : Yes
Format settings, QPel : No
Format settings, GMC : No warppoints
Format settings, Matrix : Default
Codec ID : XVID
Codec ID/Hint : XviD
Duration : 44mn 41s
Bit rate : 945 Kbps
Width : 624 pixels
Height : 352 pixels
Display aspect ratio : 16/9
Frame rate : 29.970 fps
Resolution : 8 bits
Colorimetry : 4:2:0
Scan type : Progressive
Bits/(Pixel*Frame) : 0.144
Stream size : 302 MiB
Writing library : XviD 1.1.2 (UTC 2006-11-01)

Audio
Format : MPEG Audio
Format version : Version 1
Format profile : Layer 3
Codec ID : 55
Codec ID/Hint : MP3
Duration : 44mn 41s
Bit rate mode : Variable
Bit rate : 139 Kbps
Minimum bit rate : 135 Kbps
Channel(s) : 2 channels
Sampling rate : 48.0 KHz
Resolution : 16 bits
Stream size : 44.3 MiB
Writing library : LAME3.96
Encoding settings : ABR

General
Complete name : ice.road.truckers.s02e09.avi
Format : AVI
Format/Info : Audio Video Interleave
File size : 351 MiB
Duration : 44mn 41s
Overal bit rate : 1099 Kbps
Writing application : Nandub v1.0rc2
Writing library : Nandub build 1853/release

Video
Format : MPEG-4 Visual
Format profile : Streaming [email protected]
Format settings, BVOP : Yes
Format settings, QPel : No
Format settings, GMC : No warppoints
Format settings, Matrix : Default
Codec ID : XVID
Codec ID/Hint : XviD
Duration : 44mn 41s
Bit rate : 945 Kbps
Width : 624 pixels
Height : 352 pixels
Display aspect ratio : 16/9
Frame rate : 29.970 fps
Resolution : 8 bits
Colorimetry : 4:2:0
Scan type : Progressive
Bits/(Pixel*Frame) : 0.144
Stream size : 302 MiB
Writing library : XviD 1.1.2 (UTC 2006-11-01)

Audio
Format : MPEG Audio
Format version : Version 1
Format profile : Layer 3
Codec ID : 55
Codec ID/Hint : MP3
Duration : 44mn 41s
Bit rate mode : Variable
Bit rate : 139 Kbps
Minimum bit rate : 135 Kbps
Channel(s) : 2 channels
Sampling rate : 48.0 KHz
Resolution : 16 bits
Stream size : 44.5 MiB
Writing library : LAME3.96
Encoding settings : ABR

General
Complete name : ice.road.truckers.s02e10.avi
Format : AVI
Format/Info : Audio Video Interleave
File size : 351 MiB
Duration : 44mn 40s
Overal bit rate : 1099 Kbps
Writing application : Nandub v1.0rc2
Writing library : Nandub build 1853/release

Video
Format : MPEG-4 Visual
Format profile : Streaming [email protected]
Format settings, BVOP : Yes
Format settings, QPel : No
Format settings, GMC : No warppoints
Format settings, Matrix : Default
Codec ID : XVID
Codec ID/Hint : XviD
Duration : 44mn 40s
Bit rate : 945 Kbps
Width : 624 pixels
Height : 352 pixels
Display aspect ratio : 16/9
Frame rate : 29.970 fps
Resolution : 8 bits
Colorimetry : 4:2:0
Scan type : Progressive
Bits/(Pixel*Frame) : 0.144
Stream size : 302 MiB
Writing library : XviD 1.1.2 (UTC 2006-11-01)

Audio
Format : MPEG Audio
Format version : Version 1
Format profile : Layer 3
Codec ID : 55
Codec ID/Hint : MP3
Duration : 44mn 40s
Bit rate mode : Variable
Bit rate : 140 Kbps
Minimum bit rate : 135 Kbps
Channel(s) : 2 channels
Sampling rate : 48.0 KHz
Resolution : 16 bits
Stream size : 44.6 MiB
Writing library : LAME3.96
Encoding settings : ABR

General
Complete name : ice.road.truckers.s02e11.avi
Format : AVI
Format/Info : Audio Video Interleave
File size : 349 MiB
Duration : 44mn 40s
Overal bit rate : 1093 Kbps
Writing application : VirtualDubMod 1.5.4.1 (build 2178/release)
Writing library : VirtualDubMod build 2178/release

Video
Format : MPEG-4 Visual
Format profile : Streaming [email protected]
Format settings, BVOP : Yes
Format settings, QPel : No
Format settings, GMC : No warppoints
Format settings, Matrix : Custom
Codec ID : XVID
Codec ID/Hint : XviD
Duration : 44mn 40s
Bit rate : 966 Kbps
Width : 624 pixels
Height : 352 pixels
Display aspect ratio : 16/9
Frame rate : 29.970 fps
Resolution : 8 bits
Colorimetry : 4:2:0
Scan type : Progressive
Bits/(Pixel*Frame) : 0.147
Stream size : 309 MiB
Writing library : XviD 1.2.0.dev47 (UTC 2006-11-01)

Audio
Format : MPEG Audio
Format version : Version 1
Format profile : Layer 3
Codec ID : 55
Codec ID/Hint : MP3
Duration : 44mn 40s
Bit rate mode : Variable
Bit rate : 113 Kbps
Minimum bit rate : 128 Kbps
Channel(s) : 2 channels
Sampling rate : 48.0 KHz
Resolution : 16 bits
Stream size : 36.0 MiB
Writing library : LAME3.97
Encoding settings : ABR

General
Complete name : ice.road.truckers.s02e12.avi
Format : AVI
Format/Info : Audio Video Interleave
File size : 349 MiB
Duration : 44mn 41s
Overal bit rate : 1092 Kbps
Writing application : VirtualDubMod 1.5.4.1 (build 2178/release)
Writing library : VirtualDubMod build 2178/release

Video
Format : MPEG-4 Visual
Format profile : Streaming [email protected]
Format settings, BVOP : Yes
Format settings, QPel : No
Format settings, GMC : No warppoints
Format settings, Matrix : Custom
Codec ID : XVID
Codec ID/Hint : XviD
Duration : 44mn 41s
Bit rate : 965 Kbps
Width : 624 pixels
Height : 352 pixels
Display aspect ratio : 16/9
Frame rate : 29.970 fps
Resolution : 8 bits
Colorimetry : 4:2:0
Scan type : Progressive
Bits/(Pixel*Frame) : 0.147
Stream size : 309 MiB
Writing library : XviD 1.2.0.dev47 (UTC 2006-11-01)

Audio
Format : MPEG Audio
Format version : Version 1
Format profile : Layer 3
Codec ID : 55
Codec ID/Hint : MP3
Duration : 44mn 41s
Bit rate mode : Variable
Bit rate : 113 Kbps
Minimum bit rate : 128 Kbps
Channel(s) : 2 channels
Sampling rate : 48.0 KHz
Resolution : 16 bits
Stream size : 36.2 MiB
Writing library : LAME3.97
Encoding settings : ABR

General
Complete name : ice.road.truckers.s02e13.avi
Format : AVI
Format/Info : Audio Video Interleave
File size : 349 MiB
Duration : 44mn 43s
Overal bit rate : 1091 Kbps
Writing application : VirtualDubMod 1.5.4.1 (build 2178/release)
Writing library : VirtualDubMod build 2178/release

Video
Format : MPEG-4 Visual
Format profile : Streaming [email protected]
Format settings, BVOP : Yes
Format settings, QPel : No
Format settings, GMC : No warppoints
Format settings, Matrix : Custom
Codec ID : XVID
Codec ID/Hint : XviD
Duration : 44mn 43s
Bit rate : 964 Kbps
Width : 624 pixels
Height : 352 pixels
Display aspect ratio : 16/9
Frame rate : 29.970 fps
Resolution : 8 bits
Colorimetry : 4:2:0
Scan type : Progressive
Bits/(Pixel*Frame) : 0.146
Stream size : 308 MiB
Writing library : XviD 1.2.0.dev47 (UTC 2006-11-01)

Audio
Format : MPEG Audio
Format version : Version 1
Format profile : Layer 3
Codec ID : 55
Codec ID/Hint : MP3
Duration : 44mn 43s
Bit rate mode : Variable
Bit rate : 113 Kbps
Minimum bit rate : 128 Kbps
Channel(s) : 2 channels
Sampling rate : 48.0 KHz
Resolution : 16 bits
Stream size : 36.3 MiB
Writing library : LAME3.97
Encoding settings : ABR

related torrents

Torrent name

health leech seeds Size
 


comments (0)

Main Menu