Comedy

GOOD LUCK CHUCK DVDRIP AC3

  • Download 5x Faster
  • Download torrent
  • Direct Download
  • Rate this torrent +  |  -
GOOD LUCK CHUCK DVDRIP AC3

Free and Direct Download with Usenet 300GB+ free


Torrent info

Name:GOOD LUCK CHUCK DVDRIP AC3

Total Size: 1.37 GB

Magnet: Magnet Link

Seeds: 0

Leechers: 0

Stream: Watch Online @ Movie4u

Last Updated: 2016-01-31 08:06:29 (Update Now)

Torrent added: 2008-07-26 12:38:25




Torrent Files List


TLineLuck.r00 (Size: 1.37 GB) (Files: 99)

 TLineLuck.r00

14.31 MB

 TLineLuck.r01

14.31 MB

 TLineLuck.r02

14.31 MB

 TLineLuck.r03

14.31 MB

 TLineLuck.r04

14.31 MB

 TLineLuck.r05

14.31 MB

 TLineLuck.r06

14.31 MB

 TLineLuck.r07

14.31 MB

 TLineLuck.r08

14.31 MB

 TLineLuck.r09

14.31 MB

 TLineLuck.r10

14.31 MB

 TLineLuck.r11

14.31 MB

 TLineLuck.r12

14.31 MB

 TLineLuck.r13

14.31 MB

 TLineLuck.r14

14.31 MB

 TLineLuck.r15

14.31 MB

 TLineLuck.r16

14.31 MB

 TLineLuck.r17

14.31 MB

 TLineLuck.r18

14.31 MB

 TLineLuck.r19

14.31 MB

 TLineLuck.r20

14.31 MB

 TLineLuck.r21

14.31 MB

 TLineLuck.r22

14.31 MB

 TLineLuck.r23

14.31 MB

 TLineLuck.r24

14.31 MB

 TLineLuck.r25

14.31 MB

 TLineLuck.r26

14.31 MB

 TLineLuck.r27

14.31 MB

 TLineLuck.r28

14.31 MB

 TLineLuck.r29

14.31 MB

 TLineLuck.r30

14.31 MB

 TLineLuck.r31

14.31 MB

 TLineLuck.r32

14.31 MB

 TLineLuck.r33

14.31 MB

 TLineLuck.r34

14.31 MB

 TLineLuck.r35

14.31 MB

 TLineLuck.r36

14.31 MB

 TLineLuck.r37

14.31 MB

 TLineLuck.r38

14.31 MB

 TLineLuck.r39

14.31 MB

 TLineLuck.r40

14.31 MB

 TLineLuck.r41

14.31 MB

 TLineLuck.r42

14.31 MB

 TLineLuck.r43

14.31 MB

 TLineLuck.r44

14.31 MB

 TLineLuck.r45

14.31 MB

 TLineLuck.r46

14.31 MB

 TLineLuck.r47

14.31 MB

 TLineLuck.r48

14.31 MB

 TLineLuck.r49

14.31 MB

 TLineLuck.r50

14.31 MB

 TLineLuck.r51

14.31 MB

 TLineLuck.r52

14.31 MB

 TLineLuck.r53

14.31 MB

 TLineLuck.r54

14.31 MB

 TLineLuck.r55

14.31 MB

 TLineLuck.r56

14.31 MB

 TLineLuck.r57

14.31 MB

 TLineLuck.r58

14.31 MB

 TLineLuck.r59

14.31 MB

 TLineLuck.r60

14.31 MB

 TLineLuck.r61

14.31 MB

 TLineLuck.r62

14.31 MB

 TLineLuck.r63

14.31 MB

 TLineLuck.r64

14.31 MB

 TLineLuck.r65

14.31 MB

 TLineLuck.r66

14.31 MB

 TLineLuck.r67

14.31 MB

 TLineLuck.r68

14.31 MB

 TLineLuck.r69

14.31 MB

 TLineLuck.r70

14.31 MB

 TLineLuck.r71

14.31 MB

 TLineLuck.r72

14.31 MB

 TLineLuck.r73

14.31 MB

 TLineLuck.r74

14.31 MB

 TLineLuck.r75

14.31 MB

 TLineLuck.r76

14.31 MB

 TLineLuck.r77

14.31 MB

 TLineLuck.r78

14.31 MB

 TLineLuck.r79

14.31 MB

 TLineLuck.r80

14.31 MB

 TLineLuck.r81

14.31 MB

 TLineLuck.r82

14.31 MB

 TLineLuck.r83

14.31 MB

 TLineLuck.r84

14.31 MB

 TLineLuck.r85

14.31 MB

 TLineLuck.r86

14.31 MB

 TLineLuck.r87

14.31 MB

 TLineLuck.r88

14.31 MB

 TLineLuck.r89

14.31 MB

 TLineLuck.r90

14.31 MB

 TLineLuck.r91

14.31 MB

 TLineLuck.r92

14.31 MB

 TLineLuck.r93

14.31 MB

 TLineLuck.r94

14.31 MB

 TLineLuck.r95

14.31 MB

 TLineLuck.r96

13.05 MB

 TLineLuck.rar

14.31 MB

 TLineLuck.sfv

7.33 KB
 

tracker

leech seeds
 

Torrent description

ood Luck Chuck DvDRip.AC3.XviD-TLine
http://www.imdb.com/title/tt0452625/

Ripper :Klisi
Format : AVI
Format/Info : Audio Video Interleave
File size : 701 MiB
Duration : 50mn 11s
Overall bit rate : 1953 Kbps
Writing application : VirtualDubMod 1.5.4.1 (build 2178/release)
Writing library : VirtualDubMod build 2178/release
IAS1 : English / English
IAS2 : Turkish / Turkish

Video
Format : MPEG-4 Visual
Format profile : Streaming [email protected]
Format settings, BVOP : Yes
Format settings, QPel : No
Format settings, GMC : No warppoints
Format settings, Matrix : Custom
Codec ID : XVID
Codec ID/Hint : XviD
Duration : 50mn 11s
Bit rate : 1304 Kbps
Width : 560 pixels
Height : 416 pixels
Display aspect ratio : 4/3
Frame rate : 25.000 fps
Resolution : 8 bits
Colorimetry : 4:2:0
Scan type : Progressive
Bits/(Pixel*Frame) : 0.224
Stream size : 468 MiB (67%)
Writing library : XviD 1.2.0.dev47 (UTC 2006-11-01)

Audio #1
Format : AC-3
Format/Info : Audio Coding 3
Codec ID : 2000
Duration : 50mn 11s
Bit rate mode : Constant
Bit rate : 448 Kbps
Channel(s) : 6 channels
Channel positions : Front: L C R, Rear: L R, LFE
Sampling rate : 48.0 KHz
Video delay : 13ms
Stream size : 161 MiB (23%)
Alignment : Split accross interleaves
Interleave, duration : 96 ms (2.40 video frames)
Interleave, preload duration : 96 ms

Audio #2
Format : AC-3
Format/Info : Audio Coding 3
Format profile : Dolby Digital
Codec ID : 2000
Duration : 50mn 11s
Bit rate mode : Constant
Bit rate : 192 Kbps
Channel(s) : 2 channels
Channel positions : L R
Sampling rate : 48.0 KHz
Video delay : 13ms
Stream size : 68.9 MiB (10%)
Alignment : Split accross interleaves
Interleave, duration : 96 ms (2.40 video frames)
Interleave, preload duration : 96 ms

General
Complete name : Good Luck Chuck DvDRip.AC3.XviD-TLine.cd1.avi
Format : AVI
Format/Info : Audio Video Interleave
File size : 700 MiB
Duration : 46mn 53s
Overall bit rate : 2086 Kbps
Writing application : VirtualDubMod 1.5.4.1 (build 2178/release)
Writing library : VirtualDubMod build 2178/release
IAS1 : English / English
IAS2 : Turkish / Turkish

Video
Format : MPEG-4 Visual
Format profile : Streaming [email protected]
Format settings, BVOP : Yes
Format settings, QPel : No
Format settings, GMC : No warppoints
Format settings, Matrix : Custom
Codec ID : XVID
Codec ID/Hint : XviD
Duration : 46mn 53s
Bit rate : 1437 Kbps
Width : 560 pixels
Height : 416 pixels
Display aspect ratio : 4/3
Frame rate : 25.000 fps
Resolution : 8 bits
Colorimetry : 4:2:0
Scan type : Progressive
Bits/(Pixel*Frame) : 0.247
Stream size : 482 MiB (69%)
Writing library : XviD 1.2.0.dev47 (UTC 2006-11-01)

Audio #1
Format : AC-3
Format/Info : Audio Coding 3
Codec ID : 2000
Duration : 46mn 53s
Bit rate mode : Constant
Bit rate : 448 Kbps
Channel(s) : 6 channels
Sampling rate : 48.0 KHz
Stream size : 150 MiB (21%)
Alignment : Split accross interleaves
Interleave, duration : 96 ms (2.40 video frames)
Interleave, preload duration : 96 ms

Audio #2
Format : AC-3
Format/Info : Audio Coding 3
Codec ID : 2000
Duration : 46mn 53s
Bit rate mode : Constant
Bit rate : 192 Kbps
Channel(s) : 2 channels
Sampling rate : 48.0 KHz
Stream size : 64.4 MiB (9%)
Alignment : Split accross interleaves
Interleave, duration : 96 ms (2.40 video frames)
Interleave, preload duration : 96 ms

related torrents

Torrent name

health leech seeds Size
 

comments (0)

Main Menu