TV - Other

HONG KONG PHOOEY VOLUME ONE @KIDZCORNER DVDRIP[ENG]

  • Download 5x Faster
  • Download torrent
  • Direct Download
  • Rate this torrent +  |  -
HONG KONG PHOOEY VOLUME ONE @KIDZCORNER DVDRIP[ENG]

Free and Direct Download with Usenet 300GB+ free


Torrent info

Name:HONG KONG PHOOEY VOLUME ONE @KIDZCORNER DVDRIP[ENG]

Total Size: 800.27 MB

Magnet: Magnet Link

Seeds: 0

Leechers: 0

Stream: Watch Online @ Movie4u

Last Updated: 2010-12-19 18:33:46 (Update Now)

Torrent added: 2009-08-23 21:50:00




Torrent Files List


vol 1.jpg (Size: 800.27 MB) (Files: 3)

 vol 1.jpg

40.44 KB

 HKF1.avi

800.23 MB

 Torrent downloaded from Demonoid.com.txt

0.05 KB
 

Announce URL:

Torrent description

Hong Kong Phooey To The Rescue

Just who is "America's secret weapon against crime?" As his catchy theme informs, he's a "number one super guy, quicker than the human eye!" Disguised as a mild-mannered police station janitor, Penrod transforms into the powerful pooch who the girls love to smooch by leaping into the bottom drawer of a filing cabinet - and emerging as Hong Kong Phooey in a bright red karate outfit!


General
Complete name : C:\Users\joker\Documents\HONG KONG PHOOEY-VOLUME ONE-@KIDZCORNER DVDRIP[ENG]\HKF1.avi
Format : AVI
Format/Info : Audio Video Interleave
File size : 800 MiB
Duration : 2h 49mn
Overall bit rate : 659 Kbps
Writing application : FairUse Wizard - http://fairusewizard.com
Writing library : The best and REALLY easy backup tool

Video
Format : MPEG-4 Visual
Format profile : Simple@L3
Format settings, BVOP : No
Format settings, QPel : No
Format settings, GMC : No warppoints
Format settings, Matrix : Default
Codec ID : XVID
Codec ID/Hint : XviD
Duration : 2h 49mn
Bit rate : 521 Kbps
Width : 688 pixels
Height : 496 pixels
Display aspect ratio : 1.387
Frame rate : 25.000 fps
Resolution : 24 bits
Colorimetry : 4:2:0
Scan type : Progressive
Bits/(Pixel*Frame) : 0.061
Stream size : 633 MiB (79%)
Writing library : XviD 1.2.0.dev47 (UTC 2006-11-01)

Audio
Format : MPEG Audio
Format version : Version 1
Format profile : Layer 3
Codec ID : 55
Codec ID/Hint : MP3
Duration : 2h 49mn
Bit rate mode : Constant
Bit rate : 128 Kbps
Minimum bit rate : 128 Kbps
Channel(s) : 2 channels
Sampling rate : 48.0 KHz
Resolution : 16 bits
Stream size : 155 MiB (19%)
Alignment : Aligned on interleaves
Interleave, duration : 40 ms (1.00 video frame)
Interleave, preload duration : 504 ms
Writing library : LAME3.97
Encoding settings : CBR

related torrents

Torrent name

health leech seeds Size

Hong Kong Phooey Cap 05 06

0 4 193.00 MB 0
 

comments (0)

Main Menu