TV - Other

Home & Away (1st August 2008) [PDTV (Xvid)] xtremespeeds net

  • Download 5x Faster
  • Download torrent
  • Direct Download
  • Rate this torrent +  |  -
Home & Away (1st August 2008) [PDTV (Xvid)] xtremespeeds net

Free and Direct Download with Usenet.nl 300GB+ free


Torrent info

Name:Home & Away (1st August 2008) [PDTV (Xvid)] xtremespeeds net

Total Size: 174.99 MB

Magnet: Magnet Link

Seeds: 0

Leechers: 0

Stream: Watch Online @ Movie4u

Last Updated: 2010-08-25 16:46:23 (Update Now)

Torrent added: 2009-08-23 21:46:47





Torrent Files List


Home & Away (1st August 2008) [PDTV (Xvid)].nfo (Size: 174.99 MB) (Files: 3)

 Home & Away (1st August 2008) [PDTV (Xvid)].nfo

2.40 KB

 .raidenftpd.acl

0.07 KB

 Home & Away (1st August 2008) [PDTV (Xvid)].avi

174.99 MB
 

Announce URL: http://xtremespeeds.net/announce.php?passkey=tssespecialtorrentv1byxamsep2007

Torrent description

Home & Away (1st August 2008) [PDTV (Xvid)].avi

website:-
http://www.five.tv/programmes/homeandaway/

Home and Away (Soap)
Time - 18:00 - 18:30 (30 minutes long)
When - Friday 1st August on five
Ruby enrols at Summer Bay High. Will Axel lead Jai astray? Charlie and Roman end up in bed together.
Starring: Conrad Coleby, Ester Anderson, Rebecca Breeds, Jordan Rodrigues, Tessa James
(Repeat, Subtitles, Audio Described, U)


Video Info:-

Complete name : Home & Away (1st August 2008) [PDTV (Xvid)].avi
Format : AVI
Format/Info : Audio Video Interleave
File size : 175 MiB
Duration : 21mn 36s
Overal bit rate : 1132 Kbps
Writing application : VirtualDubMod 1.5.4.1 (build 2178/release)
Writing library : VirtualDubMod build 2178/release

Video
Format : MPEG-4 Visual
Format settings, BVOP : No
Format settings, QPel : No
Format settings, GMC : 0 warppoint
Format settings, Matrix : Default
Codec ID : XVID
Codec ID/Hint : XviD
Duration : 21mn 36s
Bit rate : 997 Kbps
Width : 640 pixels
Height : 368 pixels
Display aspect ratio : 16/9
Frame rate : 25.000 fps
Resolution : 8 bits
Colorimetry : 4:2:0
Scan type : Progressive
Bits/(Pixel*Frame) : 0.169
Stream size : 154 MiB
Writing library : XviD 1.0.1
Writing library/Date : UTC 2004-06-05

Audio
Format : MPEG Audio
Format version : Version 1 / Layer 3
Codec ID : 55
Codec ID/Hint : MP3
Duration : 21mn 36s
Bit rate mode : CBR
Bit rate : 128 Kbps
Minimum bit rate : 128 Kbps
Channel(s) : 2 channels
Sampling rate : 48.0 KHz
Resolution : 16 bits
Stream size : 19.8 MiB
Writing library : LAME3.97
Encoding settings : CBR

Edited by sysop

related torrents

Torrent name

health leech seeds Size
 

comments (0)

Main Menu