TV - Other

Home & Away (15th of July 2008) [PDTV (Xvid)] xtremespeeds net

  • Download 5x Faster
  • Download torrent
  • Direct Download
  • Rate this torrent +  |  -
Home & Away (15th of July 2008) [PDTV (Xvid)] xtremespeeds net

Free and Direct Download with Usenet.nl 300GB+ free


Torrent info

Name:Home & Away (15th of July 2008) [PDTV (Xvid)] xtremespeeds net

Total Size: 174.98 MB

Magnet: Magnet Link

Seeds: 0

Leechers: 0

Stream: Watch Online @ Movie4u

Last Updated: 2010-08-25 16:46:23 (Update Now)

Torrent added: 2009-08-23 21:46:46





Torrent Files List


Home & Away (15th July 2008) [PDTV (Xvid)].nfo (Size: 174.98 MB) (Files: 2)

 Home & Away (15th July 2008) [PDTV (Xvid)].nfo

2.47 KB

 Home & Away (15th July 2008) [PDTV (Xvid)].avi

174.98 MB
 

Announce URL: http://xtremespeeds.net/announce.php?passkey=tssespecialtorrentv1byxamsep2007

Torrent description

Home & Away (15th July 2008) [PDTV (Xvid)].avi

website:-
http://www.five.tv/programmes/homeandaway/

Home and Away (Soap)
Time - 14:15 - 14:50 (35 minutes long)
When - Tuesday 15th July on five
Ric is putting his fighting skills to good use in taking up a job as a security guard. Annie confronts Melody about her strange behaviour around Axel. Geoff vows to punish Axel for what he did.
Starring: Mark Furze, Todd Lasance, Steve Vidler, Conrad Coleby, Tessa James
(Subtitles, Audio Described, U)


Video Info:-

Complete name : Home & Away (15th July 2008) [PDTV (Xvid)].avi
Format : AVI
Format/Info : Audio Video Interleave
File size : 175 MiB
Duration : 21mn 15s
Overal bit rate : 1151 Kbps
Writing application : VirtualDubMod 1.5.4.1 (build 2178/release)
Writing library : VirtualDubMod build 2178/release

Video
Format : MPEG-4 Visual
Format settings, BVOP : No
Format settings, QPel : No
Format settings, GMC : 0 warppoint
Format settings, Matrix : Default
Codec ID : XVID
Codec ID/Hint : XviD
Duration : 21mn 15s
Bit rate : 1015 Kbps
Width : 640 pixels
Height : 368 pixels
Display aspect ratio : 16/9
Frame rate : 25.000 fps
Resolution : 8 bits
Colorimetry : 4:2:0
Scan type : Progressive
Bits/(Pixel*Frame) : 0.172
Stream size : 154 MiB
Writing library : XviD 1.0.1
Writing library/Date : UTC 2004-06-05

Audio
Format : MPEG Audio
Format version : Version 1 / Layer 3
Codec ID : 55
Codec ID/Hint : MP3
Duration : 21mn 15s
Bit rate mode : CBR
Bit rate : 128 Kbps
Minimum bit rate : 128 Kbps
Channel(s) : 2 channels
Sampling rate : 48.0 KHz
Resolution : 16 bits
Stream size : 19.5 MiB
Writing library : LAME3.97
Encoding settings : CBR

Edted by sysop

related torrents

Torrent name

health leech seeds Size
 

comments (0)

Main Menu