TV - Other

Harpers Island S01E11 x264 [Blueman] mp4

  • Download 5x Faster
  • Download torrent
  • Direct Download
  • Rate this torrent +  |  -
Harpers Island S01E11 x264 [Blueman] mp4

Free and Direct Download with Usenet 300GB+ free


Torrent info

Name:Harpers Island S01E11 x264 [Blueman] mp4

Total Size: 120.44 MB

Magnet: Magnet Link

Seeds: 0

Leechers: 0

Stream: Watch Online @ Movie4u

Last Updated: 2010-08-25 16:46:22 (Update Now)

Torrent added: 2009-08-23 21:25:32




Torrent Files List


Harpers.Island.S01E11.x264 [Blueman].mp4 (Size: 120.44 MB) (Files: 1)

 Harpers.Island.S01E11.x264 [Blueman].mp4

120.44 MB
 

Announce URL: http://tracker.thepiratebay.org/announce

Torrent description

Video
ID : 1
Format : AVC
Format/Info : Advanced Video Codec
Codec ID : avc1
Codec ID/Info : Advanced Video Coding
Duration : 40mn 11s
Bit rate mode : Variable
Bit rate : 384 Kbps
Width : 624 pixels
Height : 352 pixels
Display aspect ratio : 16/9
Frame rate mode : Constant
Frame rate : 23.976 fps
Resolution : 24 bits
Colorimetry : 4:2:0
Scan type : Progressive
Bits/(Pixel*Frame) : 0.073
Stream size : 110 MiB (92%)
Writing library : x264

Audio
ID : 2
Format : AAC
Format/Info : Advanced Audio Codec
Format version : Version 4
Format profile : HE-AACv2
Duration : 40mn 11s
Bit rate mode : Variable
Bit rate : 32.3 Kbps
Maximum bit rate : 51.7 Kbps
Channel(s) : 2 channels
Sampling rate : 48.0 KHz
Resolution : 16 bits
Stream size : 9.29 MiB (8%)

related torrents

Torrent name

health leech seeds Size
 

comments (0)

Main Menu