TV - Other

Emmerdale (8th July 2008) [PDTV (Xvid)] xtremespeeds net

  • Download 5x Faster
  • Download torrent
  • Direct Download
  • Rate this torrent +  |  -
Emmerdale (8th July 2008) [PDTV (Xvid)] xtremespeeds net

Free and Direct Download with Usenet.nl 300GB+ free


Torrent info

Name:Emmerdale (8th July 2008) [PDTV (Xvid)] xtremespeeds net

Total Size: 349.80 MB

Magnet: Magnet Link

Seeds: 0

Leechers: 0

Stream: Watch Online @ Movie4u

Last Updated: 2010-07-28 01:22:12 (Update Now)

Torrent added: 2009-08-23 20:15:26





Torrent Files List


Emmerdale (8th July 2008) [PDTV (Xvid)].nfo (Size: 349.80 MB) (Files: 2)

 Emmerdale (8th July 2008) [PDTV (Xvid)].nfo

2.53 KB

 Emmerdale (8th July 2008) [PDTV (Xvid)].avi

349.80 MB
 

Announce URL: http://xtremespeeds.net/announce.php?passkey=tssespecialtorrentv1byxamsep2007

Torrent description

Emmerdale (8th July 2008) [PDTV (Xvid)].avi

website:-
http://www.itv.com/Soaps/emmerdale/default.html

Emmerdale (Soap)
Time - 19:00 - 20:00 (1 hour long)
When - Tuesday 8th July on ITV1 London
Winner Takes It All.
Donald's formidable daughter Anna arrives in the village. Katie secretly books a date for the caesarean. Miles is devastated to see Jasmine and Jake kissing.
Director: Tracey Rooney
Starring: Michael Jayston, Emma Davies, Tom Lister, Sammy Winward, Christopher Chittell, Richard Grieve
(Stereo, Widescreen, Subtitles, Audio Described)


Video info:-

Complete name : Emmerdale (8th July 2008) [PDTV (Xvid)].avi
Format : AVI
Format/Info : Audio Video Interleave
File size : 350 MiB
Duration : 46mn 11s
Overal bit rate : 1059 Kbps
Writing application : VirtualDubMod 1.5.4.1 (build 2178/release)
Writing library : VirtualDubMod build 2178/release

Video
Format : MPEG-4 Visual
Format settings, BVOP : No
Format settings, QPel : No
Format settings, GMC : 0 warppoint
Format settings, Matrix : Default
Codec ID : XVID
Codec ID/Hint : XviD
Duration : 46mn 11s
Bit rate : 923 Kbps
Width : 640 pixels
Height : 368 pixels
Display aspect ratio : 16/9
Frame rate : 25.000 fps
Resolution : 8 bits
Colorimetry : 4:2:0
Scan type : Progressive
Bits/(Pixel*Frame) : 0.157
Stream size : 305 MiB
Writing library : XviD 1.0.1
Writing library/Date : UTC 2004-06-05

Audio
Format : MPEG Audio
Format version : Version 1 / Layer 3
Codec ID : 55
Codec ID/Hint : MP3
Duration : 46mn 11s
Bit rate mode : CBR
Bit rate : 128 Kbps
Minimum bit rate : 128 Kbps
Channel(s) : 2 channels
Sampling rate : 48.0 KHz
Resolution : 16 bits
Stream size : 42.3 MiB
Writing library : LAME3.97
Encoding settings : CBR

related torrents

Torrent name

health leech seeds Size
 

comments (0)

Main Menu