TV - Other

Emmerdale (29th September 2008) [PDTV (Xvid)]

  • Download 5x Faster
  • Download torrent
  • Direct Download
  • Rate this torrent +  |  -
Emmerdale (29th September 2008) [PDTV (Xvid)]

Free and Direct Download with Usenet.nl 300GB+ free


Torrent info

Name:Emmerdale (29th September 2008) [PDTV (Xvid)]

Total Size: 174.76 MB

Magnet: Magnet Link

Seeds: 0

Leechers: 0

Stream: Watch Online @ Movie4u

Last Updated: 2010-08-25 16:46:19 (Update Now)

Torrent added: 2009-08-23 20:15:26





Torrent Files List


Emmerdale (29th September 2008) [PDTV (Xvid)].sfv (Size: 174.76 MB) (Files: 3)

 Emmerdale (29th September 2008) [PDTV (Xvid)].sfv

0.10 KB

 Emmerdale (29th September 2008) [PDTV (Xvid)].avi

174.76 MB

 Emmerdale (29th September 2008) [PDTV (Xvid)].nfo

2.53 KB
 

Announce URL: http://sparksden.org/announce.php?passkey=979f5165576aa9360859d1f1d930354f

Torrent description

Emmerdale 29th September 2008 Xvid

website:-
http://www.itv.com/Soaps/emmerdale/default.html

Emmerdale (Soap)
Time - 19:00 - 19:30 (30 minutes long)
When - Monday 29th September on ITV1 London
Eli is stunned to learn the truth about Danielle. Andy lies to Jo about attending anger management classes. A furious Donna hears that Ross interfered with her resignation.
Director: Michael Lacey
Starring: Joseph Gilgun, Nicola Stapleton, Charley Webb, Jane Cox, Andy Devine, James Hooton
(Stereo, Widescreen, Subtitles, Audio Described)


Video info:-

Complete name : Emmerdale (29th September 2008) [PDTV (Xvid)].avi
Format : AVI
Format/Info : Audio Video Interleave
File size : 175 MiB
Duration : 22mn 19s
Overal bit rate : 1094 Kbps
Writing application : VirtualDubMod 1.5.4.1 (build 2178/release)
Writing library : VirtualDubMod build 2178/release

Video
Format : MPEG-4 Visual
Format settings, BVOP : No
Format settings, QPel : No
Format settings, GMC : 0 warppoint
Format settings, Matrix : Default
Codec ID : XVID
Codec ID/Hint : XviD
Duration : 22mn 19s
Bit rate : 975 Kbps
Width : 640 pixels
Height : 368 pixels
Display aspect ratio : 16/9
frame rate : 25.000 fps
Resolution : 8 bits
Colorimetry : 4:2:0
Scan type : Progressive
Bits/(Pixel*frame) : 0.166
Stream size : 156 MiB
Writing library : XviD 1.0.1
Writing library/Date : UTC 2004-06-05

Audio
Format : MPEG Audio
Format version : Version 1 / Layer 3
Codec ID : 55
Codec ID/Hint : MP3
Duration : 22mn 19s
Bit rate mode : VBR
Bit rate : 106 Kbps
Minimum bit rate : 128 Kbps
Channel(s) : 2 channels
Sampling rate : 48.0 KHz
Resolution : 16 bits
Stream size : 17.0 MiB
Writing library : LAME3.97
Encoding settings : ABR


Type Soaps

related torrents

Torrent name

health leech seeds Size
 

comments (0)

Main Menu