TV - Other

Emmerdale (21st July 2008) [PDTV (Xvid)] Proper xtremespeeds net

  • Download 5x Faster
  • Download torrent
  • Direct Download
  • Rate this torrent +  |  -
Emmerdale (21st July 2008) [PDTV (Xvid)] Proper xtremespeeds net

Anonymous and Free Direct Download 300GB+


Torrent info

Name:Emmerdale (21st July 2008) [PDTV (Xvid)] Proper xtremespeeds net

Total Size: 174.84 MB

Magnet: Magnet Link

Seeds: 0

Leechers: 0

Stream: Watch Online @ Movie4u

Last Updated: 2010-08-12 21:59:12 (Update Now)

Torrent added: 2009-08-23 20:15:21



VPN For Torrents

Torrent Files List


Emmerdale (21st July 2008) [PDTV (Xvid)].avi (Size: 174.84 MB) (Files: 2)

 Emmerdale (21st July 2008) [PDTV (Xvid)].avi

174.84 MB

 Emmerdale (21st July 2008) [PDTV (Xvid)].nfo

2.48 KB
 

Announce URL: http://xtremespeeds.net/announce.php?passkey=tssespecialtorrentv1byxamsep2007

Torrent description

Emmerdale (21st July 2008) [PDTV (Xvid)].avi

website:-
http://www.itv.com/Soaps/emmerdale/default.html

Emmerdale (Soap)
Time - 19:00 - 19:30 (30 minutes long)
When - Monday 21st July on ITV1 London
Paul's torn when Jonny reveals Katie's plan. Pollard blames Val when the factory is shut down. Viv accepts Louise's apology.
Director: Clive Arnold
Starring: Sammy Winward, Christopher Villiers, Georgia Slowe, Richard Grieve, Matthew Bose, Deena Payne
(Stereo, Widescreen, Subtitles, Audio Described)



Video info:-

Complete name : Emmerdale (21st July 2008) [PDTV (Xvid)].avi
Format : AVI
Format/Info : Audio Video Interleave
File size : 175 MiB
Duration : 22mn 14s
Overal bit rate : 1099 Kbps
Writing application : VirtualDubMod 1.5.4.1 (build 2178/release)
Writing library : VirtualDubMod build 2178/release

Video
Format : MPEG-4 Visual
Format settings, BVOP : No
Format settings, QPel : No
Format settings, GMC : 0 warppoint
Format settings, Matrix : Default
Codec ID : XVID
Codec ID/Hint : XviD
Duration : 22mn 14s
Bit rate : 964 Kbps
Width : 640 pixels
Height : 368 pixels
Display aspect ratio : 16/9
Frame rate : 25.000 fps
Resolution : 8 bits
Colorimetry : 4:2:0
Scan type : Progressive
Bits/(Pixel*Frame) : 0.164
Stream size : 153 MiB
Writing library : XviD 1.0.1
Writing library/Date : UTC 2004-06-05

Audio
Format : MPEG Audio
Format version : Version 1 / Layer 3
Codec ID : 55
Codec ID/Hint : MP3
Duration : 22mn 14s
Bit rate mode : CBR
Bit rate : 128 Kbps
Minimum bit rate : 128 Kbps
Channel(s) : 2 channels
Sampling rate : 48.0 KHz
Resolution : 16 bits
Stream size : 20.4 MiB
Writing library : LAME3.97
Encoding settings : CBR
edited by karlandrew

related torrents

Torrent name

health leech seeds Size
 


comments (0)

Main Menu