TV - Other

Emmerdale (17th June 2008) [PDTV (Xvid)]xtremespeeds net

  • Download 5x Faster
  • Download torrent
  • Direct Download
  • Rate this torrent +  |  -
Emmerdale (17th June 2008) [PDTV (Xvid)]xtremespeeds net

Free and Direct Download with Usenet.nl 300GB+ free


Torrent info

Name:Emmerdale (17th June 2008) [PDTV (Xvid)]xtremespeeds net

Total Size: 349.75 MB

Magnet: Magnet Link

Seeds: 0

Leechers: 0

Stream: Watch Online @ Movie4u

Last Updated: 2010-08-12 05:55:03 (Update Now)

Torrent added: 2009-08-23 20:15:20





Torrent Files List


Emmerdale (17th June 2008) [PDTV (Xvid)].nfo (Size: 349.75 MB) (Files: 2)

 Emmerdale (17th June 2008) [PDTV (Xvid)].nfo

2.55 KB

 Emmerdale (17th June 2008) [PDTV (Xvid)].avi

349.75 MB
 

Announce URL: http://xtremespeeds.net/announce.php?passkey=tssespecialtorrentv1byxamsep2007

Torrent description

Emmerdale (17th June 2008) [PDTV (Xvid)].avi

website:-
http://www.itv.com/Soaps/emmerdale/default.html

Emmerdale (Soap)
Time - 19:00 - 20:00 (1 hour long)
When - Tuesday 17th June on ITV1 London
Dog\'s Life.
Nicola\'s dog antics bring her and David back together. Viv bitterly rejects Louise\'s offer as the fear of prison looms. Jasmine feels the repercussions of her split with Miles.
Director: Dominic MacDonald
Starring: Deena Payne, Tony Audenshaw, Emily Symons, Christopher Chittell, Charlie Hardwick, Jenna-Louise Coleman
(Stereo, Widescreen, Subtitles, Audio Described)


Video info:-

Complete name : Emmerdale (17th June 2008) [PDTV (Xvid)].avi
Format : AVI
Format/Info : Audio Video Interleave
File size : 350 MiB
Duration : 46mn 4s
Overal bit rate : 1061 Kbps
Writing application : VirtualDubMod 1.5.4.1 (build 2178/release)
Writing library : VirtualDubMod build 2178/release

Video
Format : MPEG-4 Visual
Format settings, BVOP : No
Format settings, QPel : No
Format settings, GMC : 0 warppoint
Format settings, Matrix : Default
Codec ID : XVID
Codec ID/Hint : XviD
Duration : 46mn 4s
Bit rate : 926 Kbps
Width : 640 pixels
Height : 368 pixels
Display aspect ratio : 16/9
frame rate : 25.000 fps
Resolution : 8 bits
Colorimetry : 4:2:0
Scan type : Progressive
Bits/(Pixel*frame) : 0.157
Stream size : 305 MiB
Writing library : XviD 1.0.1
Writing library/Date : UTC 2004-06-05

Audio
Format : MPEG Audio
Format version : Version 1 / Layer 3
Codec ID : 55
Codec ID/Hint : MP3
Duration : 46mn 4s
Bit rate mode : CBR
Bit rate : 128 Kbps
Minimum bit rate : 128 Kbps
Channel(s) : 2 channels
Sampling rate : 48.0 KHz
Resolution : 16 bits
Stream size : 42.2 MiB
Writing library : LAME3.97
Encoding settings : CBR

related torrents

Torrent name

health leech seeds Size
 

comments (0)

Main Menu