TV - Other

Emmerdale (15th July 2008) [PDTV (Xvid)] xtremespeeds net

  • Download 5x Faster
  • Download torrent
  • Direct Download
  • Rate this torrent +  |  -

Torrent info

Name:Emmerdale (15th July 2008) [PDTV (Xvid)] xtremespeeds net

Total Size: 349.82 MB

Magnet: Magnet Link

Seeds: 0

Leechers: 0

Stream: Watch Full Movie @ Movie4u

Last Updated: 2010-08-25 16:46:19 (Update Now)

Torrent added: 2009-08-23 20:15:19



VPN For Torrents

Torrent Files List


Emmerdale (15th July 2008) [PDTV (Xvid)].avi (Size: 349.82 MB) (Files: 2)

 Emmerdale (15th July 2008) [PDTV (Xvid)].avi

349.81 MB

 Emmerdale (15th July 2008) [PDTV (Xvid)].nfo

2.50 KB
 

Announce URL: http://xtremespeeds.net/announce.php?passkey=tssespecialtorrentv1byxamsep2007

Torrent description

Emmerdale (15th July 2008) [PDTV (Xvid)].avi

website:-
http://www.itv.com/Soaps/emmerdale/default.html

Emmerdale (Soap)
Time - 19:00 - 20:00 (1 hour long)
When - Tuesday 15th July on ITV1 London
You've Been framed.
Viv's meeting with Freddie ends in disaster. Andy's jealousy escalates as Jo starts work at the Woolpack. Anna befriends the Dingles.
Director: Neil Alderton
Starring: Deena Payne, Christopher Chittell, Richard Grieve, Matthew Bose, Charley Webb, James Hooton
(Stereo, Widescreen, Subtitles, Audio Described)

Video info:-

Complete name: Emmerdale (15th July 2008) [PDTV (Xvid)].avi
Format: AVI
Format/Info: Audio Video Interleave
File size: 350 MiB
Duration: 46mn 31s
Overal bit rate: 1051 Kbps
Writing application: VirtualDubMod 1.5.4.1 (build 2178/release)
Writing library: VirtualDubMod build 2178/release

Video
Format: MPEG-4 Visual
Format settings, BVOP: No
Format settings, QPel: No
Format settings, GMC: 0 warppoint
Format settings, Matrix: Default
Codec ID: XVID
Codec ID/Hint: XviD
Duration: 46mn 31s
Bit rate: 916 Kbps
Width: 640 pixels
Height: 368 pixels
Display aspect ratio: 16/9
frame rate: 25.000 fps
Resolution: 8 bits
Colorimetry: 4:2:0
Scan type: Progressive
Bits/(Pixel*frame): 0.156
Stream size: 305 MiB
Writing library: XviD 1.0.1
Writing library/Date: UTC 2004-06-05

Audio
Format: MPEG Audio
Format version: Version 1 / Layer 3
Codec ID: 55
Codec ID/Hint: MP3
Duration: 46mn 31s
Bit rate mode: CBR
Bit rate: 128 Kbps
Minimum bit rate: 128 Kbps
Channel(s): 2 channels
Sampling rate: 48.0 KHz
Resolution: 16 bits
Stream size: 42.6 MiB
Writing library: LAME3.97
Encoding settings: CBR

Edited by sysop

related torrents

Torrent name

health leech seeds Size
 


comments (0)

Main Menu

 

script data-cfasync="false" src="//d2ghscazvn398x.cloudfront.net/?cshgd=690275">