TV - Other

Emmerdale (12th June 2008) [PDTV (Xvid)]

  • Download 5x Faster
  • Download torrent
  • Direct Download
  • Rate this torrent +  |  -
Emmerdale (12th June 2008) [PDTV (Xvid)]

Free and Direct Download with Usenet 300GB+ free


Torrent info

Name:Emmerdale (12th June 2008) [PDTV (Xvid)]

Total Size: 174.86 MB

Magnet: Magnet Link

Seeds: 0

Leechers: 0

Stream: Watch Online @ Movie4u

Last Updated: 2010-07-15 05:05:52 (Update Now)

Torrent added: 2009-08-23 20:15:17




Torrent Files List


Emmerdale (12th June 2008) [PDTV (Xvid)].nfo (Size: 174.86 MB) (Files: 2)

 Emmerdale (12th June 2008) [PDTV (Xvid)].nfo

2.59 KB

 Emmerdale (12th June 2008) [PDTV (Xvid)].avi

174.86 MB
 

Announce URL: http://xtremespeeds.net/announce.php?passkey=tssespecialtorrentv1byxamsep2007

Torrent description

Emmerdale (12th June 2008) [PDTV (Xvid)].avi

website:-
http://www.itv.com/Soaps/emmerdale/default.html

Emmerdale (Soap)
Time - 19:00 - 19:30 (30 minutes long)
When - Thursday 12th June on ITV1 London
Mel resolves to stay part of Arthur's life. Nicola takes on her first client as a dog sitter. Miles attempts to whisk Jasmine away on holiday.
Director: Mark McKillop
Starring: Caroline Strong, Nicola Wheeler, Ayden Callaghan, Jenna-Louise Coleman, John Middleton, Charlotte Bellamy
(Stereo, Widescreen, Subtitles, Audio Described)


Video info:-

Complete name : Emmerdale (12th June 2008) [PDTV (Xvid)].avi
Complete name : C:xferEmmerdale (12th June 2008) [PDTV (Xvid)]emm.avi
Format : AVI
Format/Info : Audio Video Interleave
File size : 175 MiB
Duration : 22mn 8s
Overal bit rate : 1104 Kbps
Writing application : VirtualDubMod 1.5.4.1 (build 2178/release)
Writing library : VirtualDubMod build 2178/release

Video
Format : MPEG-4 Visual
Format settings, BVOP : No
Format settings, QPel : No
Format settings, GMC : 0 warppoint
Format settings, Matrix : Default
Codec ID : XVID
Codec ID/Hint : XviD
Duration : 22mn 8s
Bit rate : 969 Kbps
Width : 640 pixels
Height : 368 pixels
Display aspect ratio : 16/9
frame rate : 25.000 fps
Resolution : 8 bits
Colorimetry : 4:2:0
Scan type : Progressive
Bits/(Pixel*frame) : 0.164
Stream size : 153 MiB
Writing library : XviD 1.0.1
Writing library/Date : UTC 2004-06-05

Audio
Format : MPEG Audio
Format version : Version 1 / Layer 3
Codec ID : 55
Codec ID/Hint : MP3
Duration : 22mn 8s
Bit rate mode : CBR
Bit rate : 128 Kbps
Minimum bit rate : 128 Kbps
Channel(s) : 2 channels
Sampling rate : 48.0 KHz
Resolution : 16 bits
Stream size : 20.3 MiB
Writing library : LAME3.97
Encoding settings : CBR

related torrents

Torrent name

health leech seeds Size
 

comments (0)

Main Menu