Comedy

Sex And The City (2008) 1337x By {Noir}

  • Download 5x Faster
  • Download torrent
  • Direct Download
  • Rate this torrent +  |  -
Sex And The City (2008) 1337x By {Noir}

Anonymous and Direct Download 300GB+ free


Torrent info

Name:Sex And The City (2008) 1337x By {Noir}

Total Size: 846.04 MB

Magnet: Magnet Link

Seeds: 1

Leechers: 3

Stream: Watch Online @ Movie4u

Last Updated: 2010-09-20 09:52:25 (Update Now)

Torrent added: 2008-07-25 21:51:08




Torrent Files List


1337x.Org.txt (Size: 846.04 MB) (Files: 3)

 1337x.Org.txt

0.03 KB

 Noir.nfo

5.35 KB

 Sex And The City (2008) [1337x] By {Noir}.avi

846.04 MB
 

Announce URL: http://genesis.1337x.org:1337/announce

Torrent description

Sex And The City (2008) 1337x By {Noir} preview 0

Screenshots

Sex And The City (2008) 1337x By {Noir} preview 1

Sex And The City (2008) 1337x By {Noir} preview 2

Sex And The City (2008) 1337x By {Noir} preview 3

Sex And The City (2008) 1337x By {Noir} preview 4
_____________________________________________________________________________
▓▓▓▓▓▓
▓█████▓ ▓▓▓▓
▓██████▓ ▓▓███▓
▓▓██████▓ ▓████▓▓▓▓▓▓
▓██████▓ ▓██▒█▓▓███▓▓ ▓▓▓▓▓▓▓▓▓▓▓▓▓
▓██▒████▓ ▓██▒█▓██████▓▓███▓███▓███▓▓
▓██▒▒████▓ ▓██▒███▒▒▒▒██▓████████████▓
▓██▒▒▒▒███▓ ▓██▒██▒▒▒▒▒▒███▒▒▒██▒█▒▒▒██▓▓
▓██▒▒██▒▒██▓▓██▒██▒▒█▒▒▒▒███████▒▒▒▒▒▒██▓
▓██▒▒███▒▒██▓██▒██▒█▓█▒▒▒██▒▒▒██▒▒██▒▒▒█▓
▓██▒▒████▒▒████▒██▒█▓█▒▒▒██▒▒▒██▒▒███▒██▓
▓██▒▒█▓███▒▒███▒██▒▒█▒▒▒▒██▒▒▒██▒▒██████▓
▓██▒▒█▓▓███▒▒██▒██▒▒▒▒▒▒▒██▒▒▒██▒▒██▓███▓
▓▓██▒▒█▓ ▓███▒▒█▒██▒▒▒▒▒▒▒███████▒▒██▓▓▓▓▓
▓▓███▒▒█▓ ▓███▒▒▒███▒▒▒▒▒██▓▓▓▓██▒▒██▓
▓████▒▒█▓ ▓███▒▒█████████▓▓ ▓██▒▒██▓
▓████▒▒█▓ ▓███▒█▓██████▓▓▓ ▓██████▓
▓███████▓ ▓▓████▓▓▓▓▓▓▓▓ ▓▓▓▓▓▓▓▓
▓▓▓▓▓▓▓▓▓ ▓▓▓▓▓
_____________________________________________________________________________



*******************************************************************************
Sex And The City (2008)
*******************************************************************************

-------------------------------------------------------------------------------
General Information
-------------------------------------------------------------------------------
Type : Movie
Format : AVI
Format/Info : Audio Video Interleave
File size : 846 MiB
Duration : 2h 17mn
Source : Dvd Screener
Genre : Comedy | Drama | Romance
IMDB Link : http://www.imdb.com/title/tt1000774/
Rating : 5.4/10

Video
Format : MPEG-4 Visual
Format settings, BVOP : Yes
Format settings, QPel : No
Format settings, GMC : No warppoints
Format settings, Matrix : Default
Muxing mode : Packet Bitstream
Codec ID : DX50/60
Codec ID/Hint : DivX
Duration : 2h 17mn
Bit rate : 723 Kbps
Width : 528 pixels
Height : 288 pixels
Display aspect ratio : 16/9
Frame rate : 23.976 fps
Resolution : 8 bits
Colorimetry : 4:2:0
Scan type : Progressive
Bits/(Pixel*Frame) : 0.198
Stream size : 711 MiB (84%)

Audio
Format : MPEG Audio
Format version : Version 1
Format profile : Layer 3
Codec ID : 55
Codec ID/Hint : MP3
Duration : 2h 17mn
Bit rate mode : Constant
Bit rate : 128 Kbps
Minimum bit rate : 128 Kbps
Channel(s) : 2 channels
Sampling rate : 48.0 KHz
Resolution : 16 bits
Stream size : 126 MiB (15%)
Alignment : Aligned on interleaves
Interleave, duration : 42 ms (1.00 video frame)
Interleave, preload duration : 504 ms
Writing library : LAME3.97
Encoding settings : CBR
-------------------------------------------------------------------------------
Description
-------------------------------------------------------------------------------
After moving in together in an impossibly beautiful New York apartment,
Carrie Bradshaw and Mr. Big make a rather arbitrary decision to get married.
The wedding itself proves to be anything but a hasty affair--the guest list
quickly blooms from 75 to 200 guests, and Carrie\'s simple, label-less wedding
gown gives way to an enormous creation that makes her look like a gigantic
cream puff. An upcoming photo spread in Vogue puts the event--which will take
place at the New York Public Library--squarely in the public eye. Meanwhile,
Carrie\'s girlfriends--Samantha, the sexpot; Charlotte, the sweet na∩f; and
Miranda, the rigid perfectionist--could not be happier. At least, they
couldn\'t be happier for Carrie. Charlotte still has the unrealized hope of
getting pregnant. Samantha is finding a loving, committed relationship more
grueling than she could have imagined. Miranda unwittingly lets her own
unhappiness--created when Steve admits to cheating on her just once--spoil
Carrie\'s. After a heated encounter with Steve, she happens to spot Mr. Big
and tells him he\'s crazy to get married. She\'s really only thinking of her
own marriage. But her angry remark gets Mr. Big to thinking.
-------------------------------------------------------------------------------
Post Information
-------------------------------------------------------------------------------
Posted by............: Noir
Posted on............: 7/25/2008

Sex And The City (2008) 1337x By {Noir} preview 5

Sex And The City (2008) 1337x By {Noir} preview 6

related torrents

Torrent name

health leech seeds Size
 


comments (0)

Main Menu