TV - Other

drinking with the girls (2009) (BBC) WaRlOrD

  • Download 5x Faster
  • Download torrent
  • Direct Download
  • Rate this torrent +  |  -
drinking with the girls (2009) (BBC) WaRlOrD

Anonymous and Free Direct Download 300GB+


Torrent info

Name:drinking with the girls (2009) (BBC) WaRlOrD

Total Size: 699.97 MB

Magnet: Magnet Link

Seeds: 15

Leechers: 15

Stream: Watch Online @ Movie4u

Last Updated: 2010-11-30 23:51:30 (Update Now)

Torrent added: 2009-08-23 19:52:32



VPN For Torrents

Torrent Files List


Drinking.with.the.girls.(2009).(BBC)-WaRlOrD.avi (Size: 699.97 MB) (Files: 1)

 Drinking.with.the.girls.(2009).(BBC)-WaRlOrD.avi

699.97 MB
 

Announce URL: http://tracker.openbittorrent.com:80/announce

Torrent description

http://www.bbc.co.uk/programmes/b00jz171

Documentary in which Cherry Healey explores women's attitudes to alcohol. Cherry drinks with women across the country and tries to find out what girls drink, where they drink and how their tastes change throughout their lives.

From teenagers drinking in their bedrooms to grannies on a boozy trip, she hears people's embarrassing drunken secrets and sees how some women want to grow old disgracefully, as well as looking at why drunk women get such bad press.

Format : AVI
Format/Info : Audio Video Interleave
File size : 700 MiB
Duration : 56mn 59s
Overall bit rate : 1 717 Kbps
Writing application : VirtualDubMod 1.5.10.2 (build 2540/release)
Writing library : VirtualDubMod build 2540/release

Video
ID : 0
Format : MPEG-4 Visual
Format profile : Advanced [email protected]
Format settings, BVOP : Yes
Format settings, QPel : No
Format settings, GMC : No warppoints
Format settings, Matrix : Default (H.263)
Muxing mode : Packed bitstream
Codec ID : XVID
Codec ID/Hint : XviD
Duration : 56mn 59s
Bit rate : 1 603 Kbps
Width : 640 pixels
Height : 352 pixels
Display aspect ratio : 16/9
Frame rate : 25.000 fps
Resolution : 24 bits
Colorimetry : 4:2:0
Scan type : Progressive
Bits/(Pixel*Frame) : 0.285
Stream size : 653 MiB (93%)
Writing library : XviD 1.2.1 (UTC 2008-12-04)

Audio
ID : 1
Format : MPEG Audio
Format version : Version 1
Format profile : Layer 3
Codec ID : 55
Codec ID/Hint : MP3
Duration : 56mn 59s
Bit rate mode : Variable
Bit rate : 101 Kbps
Minimum bit rate : 32.0 Kbps
Channel(s) : 2 channels
Sampling rate : 48.0 KHz
Resolution : 16 bits
Stream size : 41.3 MiB (6%)
Alignment : Aligned on interleaves
Interleave, duration : 24 ms (0.60 video frame)
Interleave, preload duration : 584 ms
Writing library : LAME3.97b
Encoding settings : -m j -V 5 -q 3 -lowpass 16 --vbr-new -b 32

related torrents

Torrent name

health leech seeds Size
 


comments (0)

Main Menu