TV - Other

Dexter S01E01 FRENCH DVDRip XviD up mavric "VFF" ( Net)

  • Download 5x Faster
  • Download torrent
  • Direct Download
  • Rate this torrent +  |  -
Dexter S01E01 FRENCH DVDRip XviD up mavric "VFF" ( Net)

Free and Direct Download with Usenet.nl 300GB+ free


Torrent info

Name:Dexter S01E01 FRENCH DVDRip XviD up mavric "VFF" ( Net)

Total Size: 352.33 MB

Magnet: Magnet Link

Seeds: 0

Leechers: 0

Stream: Watch Online @ Movie4u

Last Updated: 2015-10-13 14:51:56 (Update Now)

Torrent added: 2009-08-23 19:30:57





Torrent Files List


Dexter 1x01.avi (Size: 352.33 MB) (Files: 2)

 Dexter 1x01.avi

350.87 MB

 ~uTorrentPartFile_11653C670.dat

1.46 MB
 

tracker

leech seeds
 

Torrent description

***ATTENTION***

Pour télécharger ce torrent, vous devez posséder un compte sur Quebec-Team ! et ensuite entrez votre passkey manuellement (http://www.quebec-team.net/announce.php?passkeyici) OU re-télécharger le torrent via le site. Merci!

***ATTENTION***

Lien d'origine : http://www.quebec-team.net/torrents/Serie-TV---FR/torrent/Dexter.S01E01.FRENCH.DVDRip.XviD-up-mavric-_VFF_.html

[taille=24][aligner=centre]Dexter.S01E01.FRENCH.DVDRip.XviD "VFF" [/aligner][/taille]




[aligner=centre]http://media.paperblog.fr/i/47/476666/dexter-saison-2-serial-killers-sont-sympas-L-1.jpeg[/aligner]

[aligner=centre]Dexter S01E01 FRENCH DVDRip XviD up mavric "VFF" ( Net) preview 0[/aligner]

[aligner=centre]Brillant expert scientifique du service médico-légal de la police de Miami,
Dexter Morgan est spécialisé dans l'analyse de prélèvements sanguins. Mais voilà, Dexter
cache un terrible secret : il est également tueur en série. Un serial killer pas comme les
autres, avec sa propre vision de la justice.

[/aligner]


[aligner=centre]Dexter S01E01 FRENCH DVDRip XviD up mavric "VFF" ( Net) preview 1[/aligner]


[aligner=centre]
Episode 1
-
Dexter

Résumé et casting
Titre original : "Dexter" (N° 1)
Médicin-légiste de la police de Miami, Dexter Morgan est spécialisé dans l'analyse de
prélèvements sanguins. Il est apprécié de tous ses collègues à l'exception du Sergent Doakes,
qui se méfie de lui. Et il n'a pas tort car Dexter consacre une partie de son temps à régler
son compte à quelques assassins en liberté. Une vision très personnelle de la justice qui
lui permet de canaliser certaines pulsions. Pour l'heure, Dexter est impressionné par le cas
d'un tueur en série qui laisse derrière lui des cadavres proprement découpés, sans une goutte de sang...
Réalisé par : Michael Cuesta
Ecrit par : Tim Schlattmann
Acteurs
Devon Graye (Dexter adolescent), Dominic Janes (Dexter enfant), C.S. Lee (Vince Masuka), Christina Robinson (Astor Bennett), Daniel Goldman (Cody Bennett), Geoffrey Pierson (Cpt. Matthews)


General
Complete name : C:UsersmavricDownloadsDexter S01E01 for whippetteDexter 1x01.avi
Format : AVI
Format/Info : Audio Video Interleave
File size : 351 MiB
Duration : 50mn 51s
Overall bit rate : 965 Kbps
Writing application : MEncoder dev-SVN-rUNKNOWN-4.1.2
Writing library : MPlayer

Video
ID : 0
Format : MPEG-4 Visual
Format profile : [email protected]
Format settings, BVOP : Yes
Format settings, QPel : No
Format settings, GMC : No warppoints
Format settings, Matrix : Default (H.263)
Muxing mode : Packed bitstream
Codec ID : XVID
Codec ID/Hint : XviD
Duration : 50mn 51s
Bit rate : 825 Kbps
Width : 640 pixels
Height : 352 pixels
Display aspect ratio : 16:9
Frame rate : 25.000 fps
Resolution : 24 bits
Colorimetry : 4:2:0
Scan type : Progressive
Bits/(Pixel*Frame) : 0.146
Stream size : 300 MiB (86%)
Writing library : XviD 0039 build=2005.09.16 (UTC 2005-09-16)

Audio
ID : 1
Format : MPEG Audio
Format version : Version 1
Format profile : Layer 3
Codec ID : 55
Codec ID/Hint : MP3
Duration : 50mn 51s
Bit rate mode : Variable
Bit rate : 127 Kbps
Nominal bit rate : 128 Kbps
Channel(s) : 2 channels
Sampling rate : 48.0 KHz
Resolution : 16 bits
Stream size : 46.1 MiB (13%)
Alignment : Aligned on interleaves
Interleave, duration : 24 ms (0.60 video frame)
Interleave, preload duration : 145 ms
Writing library : LAME3.90.
Encoding settings : -m j -V 4 -q 2 -lowpass 17.6 --abr 128

General
Complete name : C:UsersmavricDownloadsDexter S01E01 for whippette~uTorrentPartFile_11653C670.dat
Format : MPEG-4 Visual
File size : 1.46 MiB

Video
Format : MPEG-4 Visual
Format profile : [email protected]
Format settings, BVOP : Yes
Format settings, QPel : No
Format settings, GMC : No warppoints
Format settings, Matrix : Default (H.263)
Width : 640 pixels
Height : 352 pixels
Display aspect ratio : 16:9
Frame rate : 25.000 fps
Resolution : 24 bits
Colorimetry : 4:2:0
Scan type : Progressive
Writing library : XviD 0039 build=2005.09.16 (UTC 2005-09-16)


[/aligner]

related torrents

Torrent name

health leech seeds Size
 

comments (0)

Main Menu