TV - Other

castle 2009 s01e01 hdtv xvid xor avi

  • Download 5x Faster
  • Download torrent
  • Direct Download
  • Rate this torrent +  |  -
castle 2009 s01e01 hdtv xvid xor avi

Free and Direct Download with Usenet 300GB+ free


Torrent info

Name:castle 2009 s01e01 hdtv xvid xor avi

Total Size: 350.14 MB

Magnet: Magnet Link

Seeds: 0

Leechers: 0

Stream: Watch Online @ Movie4u

Last Updated: 2016-05-31 00:35:15 (Update Now)

Torrent added: 2009-08-23 18:15:54




Torrent Files List


castle.2009.s01e01.hdtv.xvid-xor.avi (Size: 350.14 MB) (Files: 1)

 castle.2009.s01e01.hdtv.xvid-xor.avi

350.14 MB
 

tracker

leech seeds
 

Torrent description

Format : AVI
Format/Info : Audio Video Interleave
File size : 350 MiB
Duration : 42mn 2s
Overall bit rate : 1 164 Kbps

Video
Format : MPEG-4 Visual
Format profile : Streaming Video@L1
Format settings, BVOP : Yes
Format settings, QPel : No
Format settings, GMC : No warppoints
Format settings, Matrix : Default
Codec ID : XVID
Codec ID/Hint : XviD
Duration : 42mn 2s
Bit rate : 1 020 Kbps
Width : 624 pixels
Height : 352 pixels
Display aspect ratio : 16/9
Frame rate : 23.976 fps
Resolution : 24 bits
Colorimetry : 4:2:0
Scan type : Progressive
Bits/(Pixel*Frame) : 0.194
Stream size : 307 MiB (88%)
Writing library : XviD 1.2.0SMP (UTC 2006-01-08)

Audio
Format : MPEG Audio
Format version : Version 1
Format profile : Layer 3
Codec ID : 55
Codec ID/Hint : MP3
Duration : 42mn 2s
Bit rate mode : Variable
Bit rate : 132 Kbps
Nominal bit rate : 128 Kbps
Channel(s) : 2 channels
Sampling rate : 48.0 KHz
Resolution : 16 bits
Stream size : 39.6 MiB (11%)
Alignment : Aligned on interleaves
Interleave, duration : 24 ms (0.58 video frame)
Writing library : LAME3.90.
Encoding settings : ABR

related torrents

Torrent name

health leech seeds Size
 

comments (0)

Main Menu