Other

ACDC Stiff Upper Lip (2000) [LOSSLESS FLAC][Tntvillage Scambioetico]

  • Download 5x Faster
  • Download torrent
  • Direct Download
  • Rate this torrent +  |  -

Torrent info

Name:ACDC Stiff Upper Lip (2000) [LOSSLESS FLAC][Tntvillage Scambioetico]

Total Size: 370.03 MB

Magnet: Magnet Link

Seeds: 0

Leechers: 0

Stream: Watch Online @ Movie4u

Last Updated: 2015-12-08 22:59:27 (Update Now)

Torrent added: 2009-08-23 18:11:31



VPN For Torrents

Torrent Files List


Cover_Front++.jpg (Size: 370.03 MB) (Files: 19)

 Cover_Front++.jpg

2.70 MB

 AC-DC - Stiff Upper Lip.log

5.05 KB

 Cover_Back_Inside.jpg

4.18 MB

 Cover_Inside++.jpg

3.34 MB

 Cover_Inside.jpg

5.32 MB

 Cover_Back.jpg

4.63 MB

 Cover_Front.jpg

7.23 MB

 03 - AC-DC - House Of Jazz.flac

26.47 MB

 06 - AC-DC - Can't Stand Still.flac

26.21 MB

 01 - AC-DC - Stiff Upper Lip.flac

26.60 MB

 09 - AC-DC - Damned.flac

27.39 MB

 02 - AC-DC - Meltdown.flac

27.15 MB

 04 - AC-DC - Hold Me Back.flac

27.67 MB

 10 - AC-DC - Come And Get It.flac

29.09 MB

 08 - AC-DC - Satellite Blues.flac

27.84 MB

 05 - AC-DC - Safe In New York City.flac

29.60 MB

 12 - AC-DC - Give It Up.flac

30.08 MB

 11 - AC-DC - All Screwed Up.flac

34.30 MB

 07 - AC-DC - Can't Stop Rock 'N' Roll.flac

30.23 MB
 

tracker

leech seeds
 

Torrent description

ACDC - Stiff Upper Lip (2000) [LOSSLESS FLAC][Tntvillage.Scambioetico]

Visit this link: More info on this torrent

Visit this link: All My Torrent



AC/DC - Stiff Upper Lip


by RDaneel



Image Link



[::Album Information::]

Title: Stiff Upper Lip
Years: 2000
Genre: Hard Rock
Production: Elektra Entertainment Group



[::Tracklist::]

1. Stiff Upper Lip (M.Young & A. Young) - 3:35
2. Meltdown (M.Young & A. Young) - 3:41
3. House Of Jazz (M.Young & A. Young) - 3:56
4. Hold Me Back ( M.Young & A. Young) - 3:59
5. Safe In New York City (M.Young & A. Young) - 3:59
6. Can't Stand Still (M.Young & A. Young) - 3:41
7. Can't Stop Rock 'N' Roll (M.Young & A. Young) - 4:02
8. Satellite Blues (M.Young & A. Young) - 3:46
9. Damned (M.Young & A. Young) - 3:52
10. Come And Get It (M.Young & A. Young) - 4:03
11. All Screwed Up (M.Young & A. Young) - 4:36
12. Give It Up (M.Young & A. Young) - 3:53



[::Review::]

Stiff Upper Lip is the 14th album by Australian band AC/DC; it was released in 2000. The album was recorded at The Warehouse Studio in Vancouver, British Columbia and mastered at Sterling Sound in New York City. The album was produced by George Young, older brother of Malcolm and Angus Young. The three singles to be released from it were the title track, "Safe in New York City", and "Satellite Blues". These three songs plus "Meltdown" were played live on the subsequent world tour.

This album was rereleased in the U.S. on April 17, 2007 as part of AC/DC's Remasters series. This was done in the U.K. in 2005.

The album is currently certified platinum in the US for sales in excess of 1,000,000 copies.



[::Technical data::]

Codec usato: Flac.

Tracce rippate da cd originale


Exact Audio Copy V0.99 prebeta 5 from 4. May 2009

EAC extraction logfile from 11. August 2009, 10:53

AC-DC / Stiff Upper Lip

Used drive : TSSTcorpCDDVDW SH-S202J Adapter: 1 ID: 0

Read mode : Secure
Utilize accurate stream : Yes
Defeat audio cache : No
Make use of C2 pointers : No

Read offset correction : 6
Overread into Lead-In and Lead-Out : No
Fill up missing offset samples with silence : Yes
Delete leading and trailing silent blocks : No
Null samples used in CRC calculations : Yes
Used interface : Installed external ASPI interface
Gap handling : Not detected, thus appended to previous track

Used output format : User Defined Encoder
Selected bitrate : 1024 kBit/s
Quality : High
Add ID3 tag : No
Command line compressor : C:\Programmi\Exact Audio Copy\FLAC\FLAC.EXE
Additional command line options : -8 -V -T "artist=%a" -T "title=%t" -T "album=%g" -T "date=%y"

-T "tracknumber=%n" -T "genre=%m" %s


TOC of the extracted CD

Track | Start | Length | Start sector | End sector
---------------------------------------------------------
1 | 0:00.00 | 3:34.70 | 0 | 16119
2 | 3:34.70 | 3:41.17 | 16120 | 32711
3 | 7:16.12 | 3:56.30 | 32712 | 50441
4 | 11:12.42 | 3:59.08 | 50442 | 68374
5 | 15:11.50 | 3:59.42 | 68375 | 86341
6 | 19:11.17 | 3:41.38 | 86342 | 102954
7 | 22:52.55 | 4:02.00 | 102955 | 121104
8 | 26:54.55 | 3:46.47 | 121105 | 138101
9 | 30:41.27 | 3:51.73 | 138102 | 155499
10 | 34:33.25 | 4:02.57 | 155500 | 173706
11 | 38:36.07 | 4:36.40 | 173707 | 194446
12 | 43:12.47 | 3:53.13 | 194447 | 211934


Track 1

Filename C:\Musica\Musica_Rippata\AC-DC\Stiff Upper Lip\01 - AC-DC - Stiff Upper Lip.wav

Peak level 100.0 %
Track quality 100.0 %
Copy CRC C7AC0C4E
Accurately ripped (confidence 77) [EA28A629]
Copy OK

Track 2

Filename C:\Musica\Musica_Rippata\AC-DC\Stiff Upper Lip\02 - AC-DC - Meltdown.wav

Peak level 100.0 %
Track quality 100.0 %
Copy CRC A8D11DCB
Accurately ripped (confidence 76) [0151AE99]
Copy OK

Track 3

Filename C:\Musica\Musica_Rippata\AC-DC\Stiff Upper Lip\03 - AC-DC - House Of Jazz.wav

Peak level 100.0 %
Track quality 100.0 %
Copy CRC 0C944F09
Accurately ripped (confidence 76) [407256FC]
Copy OK

Track 4

Filename C:\Musica\Musica_Rippata\AC-DC\Stiff Upper Lip\04 - AC-DC - Hold Me Back.wav

Peak level 100.0 %
Track quality 100.0 %
Copy CRC 816C7A48
Accurately ripped (confidence 77) [D8D38706]
Copy OK

Track 5

Filename C:\Musica\Musica_Rippata\AC-DC\Stiff Upper Lip\05 - AC-DC - Safe In New York

City.wav

Peak level 100.0 %
Track quality 100.0 %
Copy CRC B7674820
Accurately ripped (confidence 77) [C9526B63]
Copy OK

Track 6

Filename C:\Musica\Musica_Rippata\AC-DC\Stiff Upper Lip\06 - AC-DC - Can't Stand Still.wav

Peak level 100.0 %
Track quality 99.9 %
Copy CRC 25CB0210
Accurately ripped (confidence 76) [5FF97F07]
Copy OK

Track 7

Filename C:\Musica\Musica_Rippata\AC-DC\Stiff Upper Lip\07 - AC-DC - Can't Stop Rock 'N'

Roll.wav

Peak level 100.0 %
Track quality 100.0 %
Copy CRC CD3D14B0
Accurately ripped (confidence 75) [20570B84]
Copy OK

Track 8

Filename C:\Musica\Musica_Rippata\AC-DC\Stiff Upper Lip\08 - AC-DC - Satellite Blues.wav

Peak level 100.0 %
Track quality 100.0 %
Copy CRC 2D7A861C
Accurately ripped (confidence 77) [900D4BA6]
Copy OK

Track 9

Filename C:\Musica\Musica_Rippata\AC-DC\Stiff Upper Lip\09 - AC-DC - Damned.wav

Peak level 100.0 %
Track quality 100.0 %
Copy CRC DF3C0DC5
Accurately ripped (confidence 77) [5C5C5871]
Copy OK

Track 10

Filename C:\Musica\Musica_Rippata\AC-DC\Stiff Upper Lip\10 - AC-DC - Come And Get It.wav

Peak level 100.0 %
Track quality 99.9 %
Copy CRC 4063EA22
Accurately ripped (confidence 76) [2BEDD8C5]
Copy OK

Track 11

Filename C:\Musica\Musica_Rippata\AC-DC\Stiff Upper Lip\11 - AC-DC - All Screwed Up.wav

Peak level 100.0 %
Track quality 100.0 %
Copy CRC 27F0BB71
Accurately ripped (confidence 76) [3A5C474A]
Copy OK

Track 12

Filename C:\Musica\Musica_Rippata\AC-DC\Stiff Upper Lip\12 - AC-DC - Give It Up.wav

Peak level 100.0 %
Track quality 100.0 %
Copy CRC 24E54D10
Accurately ripped (confidence 73) [86D4546b]
Copy OK


All tracks accurately ripped

No errors occurred

End of status report






Visit http://www.tntvillage.scambioetico.org/

related torrents

Torrent name

health leech seeds Size
 


comments (0)

Main Menu