TV - Other

BRATZ CAMPING 2009 [DVDRIP][ENG] KIDZCORNER

  • Download 5x Faster
  • Download torrent
  • Direct Download
  • Rate this torrent +  |  -
BRATZ CAMPING 2009 [DVDRIP][ENG] KIDZCORNER

Free and Direct Download with Usenet 300GB+ free


Torrent info

Name:BRATZ CAMPING 2009 [DVDRIP][ENG] KIDZCORNER

Total Size: 784.82 MB

Magnet: Magnet Link

Seeds: 0

Leechers: 0

Stream: Watch Online @ Movie4u

Last Updated: 2012-11-20 23:59:37 (Update Now)

Torrent added: 2009-08-23 17:54:55




Torrent Files List


Tracked by moviesb4time.biz.txt (Size: 784.82 MB) (Files: 4)

 Tracked by moviesb4time.biz.txt

1.35 KB

 Torrent downloaded from Demonoid.com.txt

0.05 KB

 bratz c.avi

784.78 MB

 8296051x.jpg

34.87 KB
 

Announce URL:

Torrent description

bratz-camping a new 2008/9 release =4 fanastic episodes

General
Complete name : C:\Users\joker\Documents\BRATZ-CAMPING 2009-[DVDRIP][ENG]-KIDZCORNER\bratz c.avi
Format : AVI
Format/Info : Audio Video Interleave
File size : 785 MiB
Duration : 1h 21mn
Overall bit rate : 1 340 Kbps

Video
Format : MPEG-4 Visual
Format profile : [email protected]
Format settings, BVOP : No
Format settings, QPel : No
Format settings, GMC : No warppoints
Format settings, Matrix : Default
Codec ID : XVID
Codec ID/Hint : XviD
Duration : 1h 21mn
Bit rate : 1 200 Kbps
Width : 640 pixels
Height : 480 pixels
Display aspect ratio : 4/3
Frame rate : 25.000 fps
Resolution : 24 bits
Colorimetry : 4:2:0
Scan type : Progressive
Bits/(Pixel*Frame) : 0.156
Stream size : 703 MiB (90%)
Writing library : Magic0432

Audio
Format : MPEG Audio
Format version : Version 1
Format profile : Layer 3
Codec ID : 55
Codec ID/Hint : MP3
Duration : 1h 21mn
Bit rate mode : Constant
Bit rate : 128 Kbps
Channel(s) : 2 channels
Sampling rate : 44.1 KHz
Resolution : 16 bits
Stream size : 75.0 MiB (10%)
Alignment : Aligned on interleaves
Interleave, duration : 26 ms (0.65 video frame)

related torrents

Torrent name

health leech seeds Size
 

comments (0)

Main Menu