Hardcore

Terror Squad The Album

  • Download 5x Faster
  • Download torrent
  • Direct Download
  • Rate this torrent +  |  -
Terror Squad The Album

Anonymous and Free Direct Download


Torrent info

Name:Terror Squad The Album

Total Size: 111.95 MB

Magnet: Magnet Link

Seeds: 0

Leechers: 0

Stream: Watch Online @ Movie4u

Last Updated: 0000-00-00 00:00:00 (Update Now)

Torrent added: 2009-08-23 17:43:02



VPN For Torrents

Torrent Files List


The Album.log (Size: 111.95 MB) (Files: 19)

 The Album.log

4.58 KB

 The Album.CUE

3.55 KB

 Terror Squad - The Album.m3u

2.27 KB

 16 - www.thatsmysh-t.com [feat. Fat Joe, Triple Seis and The Bleach Brothers (Dirtman & Reka)].mp3

6.29 MB

 15 - Payin' Dues [feat. Armageaddon and Keith Nut].mp3

7.26 MB

 14 - My Kinda Girls [feat. Tony Sunshine and Cuban Link].mp3

7.25 MB

 13 - Rudeboy Salute [feat. Fat Joe, Buju Banton and Big Pun.mp3

7.05 MB

 12 - Tell Me What U Want [feat. Fat Joe, Armageaddon, Cuban Link and Tony Sunshine].mp3

7.97 MB

 11 - All Around The World [feat. Cuban Link].mp3

6.74 MB

 10 - Feelin' This [feat. Armageaddon, Prospect and Big Pun].mp3

8.00 MB

 09 - Gimmie Dat [feat. Armageaddon].mp3

5.67 MB

 08 - As The World Turns [feat. Cuban Link, Prospect, Triple Seis and Tony Sunshine].mp3

7.45 MB

 07 - Bring It On [feat. Fat Joe].mp3

6.96 MB

 06 - War [feat. Triple Seis].mp3

5.52 MB

 05 - Triple Threat [feat. Armageaddon, Big Pun and Cuban Link].mp3

7.64 MB

 04 - Whatcha Gon Do [feat. Big Pun].mp3

5.05 MB

 03 - '99 Live [feat. Prospect].mp3

7.81 MB

 02 - Pass The Glock [feat. Triple Seis, Cuban Link, Armageaddon, Prospect, Big Pun and Fat Joe].mp3

7.51 MB

 01 - In For Life [feat. Big Pun, Triple Seis, Prospect and Cuban Link].mp3

7.77 MB
 

Announce URL:

Torrent description

PERFORMER "Terror Squad"
TITLE "The Album"
FILE "01 - In For Life [feat. Big Pun, Triple Seis, Prospect and Cuban Link].wav" WAVE
TRACK 01 AUDIO
TITLE "In For Life [feat. Big Pun, Triple Seis, Prospect and Cuban Link]"
PERFORMER "Terror Squad"
INDEX 01 00:00:00
FILE "02 - Pass The Glock [feat. Triple Seis, Cuban Link, Armageaddon, Prospect, Big Pun and Fat Joe].wav" WAVE
TRACK 02 AUDIO
TITLE "Pass The Glock [feat. Triple Seis, Cuban Link, Armageaddon, Prospect, Big Pun..."
PERFORMER "Terror Squad"
INDEX 01 00:00:00
FILE "03 - '99 Live [feat. Prospect].wav" WAVE
TRACK 03 AUDIO
TITLE "'99 Live [feat. Prospect]"
PERFORMER "Terror Squad"
INDEX 01 00:00:00
FILE "04 - Whatcha Gon Do [feat. Big Pun].wav" WAVE
TRACK 04 AUDIO
TITLE "Whatcha Gon Do? [feat. Big Pun]"
PERFORMER "Terror Squad"
INDEX 01 00:00:00
FILE "05 - Triple Threat [feat. Armageaddon, Big Pun and Cuban Link].wav" WAVE
TRACK 05 AUDIO
TITLE "Triple Threat [feat. Armageaddon, Big Pun and Cuban Link]"
PERFORMER "Terror Squad"
INDEX 01 00:00:00
FILE "06 - War [feat. Triple Seis].wav" WAVE
TRACK 06 AUDIO
TITLE "War [feat. Triple Seis]"
PERFORMER "Terror Squad"
INDEX 01 00:00:00
FILE "07 - Bring It On [feat. Fat Joe].wav" WAVE
TRACK 07 AUDIO
TITLE "Bring It On [feat. Fat Joe]"
PERFORMER "Terror Squad"
INDEX 01 00:00:00
FILE "08 - As The World Turns [feat. Cuban Link, Prospect, Triple Seis and Tony Sunshine].wav" WAVE
TRACK 08 AUDIO
TITLE "As The World Turns [feat. Cuban Link, Prospect, Triple Seis and Tony Sunshine]"
PERFORMER "Terror Squad"
INDEX 01 00:00:00
FILE "09 - Gimmie Dat [feat. Armageaddon].wav" WAVE
TRACK 09 AUDIO
TITLE "Gimmie Dat [feat. Armageaddon]"
PERFORMER "Terror Squad"
INDEX 01 00:00:00
FILE "10 - Feelin' This [feat. Armageaddon, Prospect and Big Pun].wav" WAVE
TRACK 10 AUDIO
TITLE "Feelin' This [feat. Armageaddon, Prospect and Big Pun]"
PERFORMER "Terror Squad"
INDEX 01 00:00:00
FILE "11 - All Around The World [feat. Cuban Link].wav" WAVE
TRACK 11 AUDIO
TITLE "All Around The World [feat. Cuban Link]"
PERFORMER "Terror Squad"
INDEX 01 00:00:00
FILE "12 - Tell Me What U Want [feat. Fat Joe, Armageaddon, Cuban Link and Tony Sunshine].wav" WAVE
TRACK 12 AUDIO
TITLE "Tell Me What U Want [feat. Fat Joe, Armageaddon, Cuban Link and Tony Sunshine]"
PERFORMER "Terror Squad"
INDEX 01 00:00:00
TRACK 13 AUDIO
TITLE "Rudeboy Salute [feat. Fat Joe, Buju Banton and Big Pun"
PERFORMER "Terror Squad"
INDEX 00 04:44:67
FILE "13 - Rudeboy Salute [feat. Fat Joe, Buju Banton and Big Pun.wav" WAVE
INDEX 01 00:00:00
FILE "14 - My Kinda Girls [feat. Tony Sunshine and Cuban Link].wav" WAVE
TRACK 14 AUDIO
TITLE "My Kinda Girls [feat. Tony Sunshine and Cuban Link]"
PERFORMER "Terror Squad"
INDEX 01 00:00:00
FILE "15 - Payin' Dues [feat. Armageaddon and Keith Nut].wav" WAVE
TRACK 15 AUDIO
TITLE "Payin' Dues [feat. Armageaddon and Keith Nut]"
PERFORMER "Terror Squad"
INDEX 01 00:00:00
FILE "16 - www.thatsmysh-t.com [feat. Fat Joe, Triple Seis and The Bleach Brothers (Dirtman & Reka)].wav" WAVE
TRACK 16 AUDIO
TITLE "www.thatsmysh-t.com [feat. Fat Joe, Triple Seis and The Bleach Brothers (Dirt..."
PERFORMER "Terror Squad"
INDEX 01 00:00:00
TRACK 17 MODEx/2xxx
TITLE "Data Track"
PERFORMER "Terror Squad"
INDEX 00 03:41:30

related torrents

Torrent name

health leech seeds Size

Terror Squad

2 4 34.94 MB 0

Terror Squad The Album

0 0 111.95 MB 0
 


comments (0)

Main Menu