Movies - Other

CRADLE TO THE GRAVE AC3 XVID

  • Download 5x Faster
  • Download torrent
  • Direct Download
  • Rate this torrent +  |  -
CRADLE TO THE GRAVE AC3 XVID

Anonymous and Direct Download 300GB+ free


Torrent info

Name:CRADLE TO THE GRAVE AC3 XVID

Total Size: 1.36 GB

Magnet: Magnet Link

Seeds: 2

Leechers: 0

Stream: Watch Online @ Movie4u

Last Updated: 2010-11-29 07:15:20 (Update Now)

Torrent added: 2008-07-25 06:34:36




Torrent Files List


Cradle 2 the Grave.TR-EN AC3.DvDRip.XviD-line.part01.rar (Size: 1.36 GB) (Files: 18)

 Cradle 2 the Grave.TR-EN AC3.DvDRip.XviD-line.part01.rar

95.78 MB

 Cradle 2 the Grave.TR-EN AC3.DvDRip.XviD-line.part02.rar

95.78 MB

 Cradle 2 the Grave.TR-EN AC3.DvDRip.XviD-line.part03.rar

95.78 MB

 Cradle 2 the Grave.TR-EN AC3.DvDRip.XviD-line.part04.rar

95.78 MB

 Cradle 2 the Grave.TR-EN AC3.DvDRip.XviD-line.part05.rar

95.78 MB

 Cradle 2 the Grave.TR-EN AC3.DvDRip.XviD-line.part06.rar

95.78 MB

 Cradle 2 the Grave.TR-EN AC3.DvDRip.XviD-line.part07.rar

95.78 MB

 Cradle 2 the Grave.TR-EN AC3.DvDRip.XviD-line.part08.rar

95.78 MB

 Cradle 2 the Grave.TR-EN AC3.DvDRip.XviD-line.part09.rar

95.78 MB

 Cradle 2 the Grave.TR-EN AC3.DvDRip.XviD-line.part10.rar

95.78 MB

 Cradle 2 the Grave.TR-EN AC3.DvDRip.XviD-line.part11.rar

95.78 MB

 Cradle 2 the Grave.TR-EN AC3.DvDRip.XviD-line.part12.rar

95.78 MB

 Cradle 2 the Grave.TR-EN AC3.DvDRip.XviD-line.part13.rar

95.78 MB

 Cradle 2 the Grave.TR-EN AC3.DvDRip.XviD-line.part14.rar

95.78 MB

 Cradle 2 the Grave.TR-EN AC3.DvDRip.XviD-line.part15.rar

55.61 MB

 cradle cd 1.txt

2.82 KB

 cradle cd2.txt

2.74 KB

 crdale.jpg

127.27 KB
 

Announce URL: http://sparksden.org/announce.php?passkey=tssespecialtorrentv1byxamsep2007

Torrent description

Format : AVI
Format/Info : Audio Video Interleave
File size : 700 MiB
Duration : 51mn 24s
Overall bit rate : 1904 Kbps
Writing application : VirtualDubMod 1.5.4.1 (build 2178/release)
Writing library : VirtualDubMod build 2178/release
IAS1 : English / English
IAS2 : Turkish / Turkish

Video
Format : MPEG-4 Visual
Format profile : Streaming [email protected]
Format settings, BVOP : Yes
Format settings, QPel : No
Format settings, GMC : No warppoints
Format settings, Matrix : Custom
Codec ID : XVID
Codec ID/Hint : XviD
Duration : 51mn 24s
Bit rate : 1319 Kbps
Width : 672 pixels
Height : 288 pixels
Display aspect ratio : 2.35
Frame rate : 25.000 fps
Resolution : 8 bits
Colorimetry : 4:2:0
Scan type : Progressive
Bits/(Pixel*Frame) : 0.273
Stream size : 485 MiB (69%)
Writing library : XviD 1.2.0.dev47 (UTC 2006-11-01)

Audio #1
Format : AC-3
Format/Info : Audio Coding 3
Codec ID : 2000
Duration : 51mn 24s
Bit rate mode : Constant
Bit rate : 384 Kbps
Channel(s) : 6 channels
Channel positions : Front: L C R, Rear: L R, LFE
Sampling rate : 48.0 KHz
Video delay : 8ms
Stream size : 141 MiB (20%)
Alignment : Split accross interleaves
Interleave, duration : 96 ms (2.40 video frames)
Interleave, preload duration : 96 ms

Audio #2
Format : AC-3
Format/Info : Audio Coding 3
Format profile : Dolby Digital
Codec ID : 2000
Duration : 51mn 24s
Bit rate mode : Constant
Bit rate : 192 Kbps
Channel(s) : 2 channels
Channel positions : L R
Sampling rate : 48.0 KHz
Video delay : 8ms
Stream size : 70.6 MiB (10%)
Alignment : Split accross interleaves
Interleave, duration : 96 ms (2.40 video frames)
Interleave, preload duration : 96 ms

related torrents

Torrent name

health leech seeds Size

Cradle To The Grave avi

0 0 682.00 MB 0
 


comments (0)

Main Menu