TV - Other

BBC Scotland History of Scotland part 1 English Audio English Subtitles

  • Download 5x Faster
  • Download torrent
  • Direct Download
  • Rate this torrent +  |  -

Torrent info

Name:BBC Scotland History of Scotland part 1 English Audio English Subtitles

Total Size: 699.84 MB

Magnet: Magnet Link

Seeds: 0

Leechers: 0

Stream: Watch Online @ Movie4u

Last Updated: 2015-09-30 11:21:56 (Update Now)

Torrent added: 2009-08-23 17:32:11



VPN For Torrents

Torrent Files List


BBC Scotland History of Scotland part 1 English Audio English Subtitles.mp4 (Size: 699.84 MB) (Files: 1)

 BBC Scotland History of Scotland part 1 English Audio English Subtitles.mp4

699.84 MB
 

tracker

leech seeds
 

Torrent description


General
Complete name : C:BBC Scotland History of Scotland part 1 English Audio English Subtitles.mp4
Format : MPEG-4
Format profile : Base Media
Codec ID : isom
File size : 700 MiB
Duration : 59mn 19s
Overall bit rate : 1 649 Kbps
Encoded date : UTC 2009-03-07 19:06:34
Tagged date : UTC 2009-03-07 19:06:34

Video
ID : 1
Format : AVC
Format/Info : Advanced Video Codec
Format profile : [email protected]
Format settings, CABAC : Yes
Format settings, ReFrames : 1 frame
Codec ID : avc1
Codec ID/Info : Advanced Video Coding
Duration : 59mn 19s
Bit rate mode : Variable
Bit rate : 1 523 Kbps
Maximum bit rate : 4 133 Kbps
Width : 672 pixels
Height : 368 pixels
Display aspect ratio : 16/9
Frame rate mode : Constant
Frame rate : 25.000 fps
Resolution : 24 bits
Colorimetry : 4:2:0
Scan type : Progressive
Bits/(Pixel*Frame) : 0.246
Stream size : 646 MiB (92%)
Writing library : x264 core 67 r1120M 8544346
Encoding settings : cabac=1 / ref=1 / deblock=1:0:0 / analyse=0x1:0x111 / me=hex / subme=6 / psy_rd=1.0:0.0 / mixed_ref=0 / me_range=16 / chroma_me=1 / trellis=0 / 8x8dct=0 / cqm=0 / deadzone=21,11 / chroma_qp_offset=-2 / threads=3 / nr=0 / decimate=1 / mbaff=0 / bframes=0 / keyint=250 / keyint_min=25 / scenecut=40 / rc=2pass / bitrate=1523 / ratetol=1.0 / qcomp=0.60 / qpmin=10 / qpmax=51 / qpstep=4 / cplxblur=20.0 / qblur=0.5 / ip_ratio=1.40 / aq=1:1.00
Encoded date : UTC 2009-03-07 19:06:34
Tagged date : UTC 2009-03-07 19:09:29

Audio
ID : 2
Format : AAC
Format/Info : Advanced Audio Codec
Format version : Version 4
Format profile : LC
Format settings, SBR : No
Codec ID : 40
Duration : 59mn 19s
Bit rate mode : Variable
Bit rate : 124 Kbps
Maximum bit rate : 171 Kbps
Channel(s) : 2 channels
Channel positions : L R
Sampling rate : 48.0 KHz
Resolution : 16 bits
Stream size : 52.4 MiB (7%)
Encoded date : UTC 2009-03-07 19:09:22
Tagged date : UTC 2009-03-07 19:09:29

related torrents

Torrent name

health leech seeds Size
 


comments (0)

Main Menu