TV - Other

Avrupa Yakasi 172 (03 12 2008) erhan00 avi

  • Download 5x Faster
  • Download torrent
  • Direct Download
  • Rate this torrent +  |  -
Avrupa Yakasi 172 (03 12 2008) erhan00 avi

Free and Direct Download with Usenet 300GB+ free


Torrent info

Name:Avrupa Yakasi 172 (03 12 2008) erhan00 avi

Total Size: 453.46 MB

Magnet: Magnet Link

Seeds: 0

Leechers: 1

Stream: Watch Online @ Movie4u

Last Updated: 2010-11-30 23:14:39 (Update Now)

Torrent added: 2009-08-23 17:26:17




Torrent Files List


Avrupa.Yakasi.172.(03.12.2008).erhan00.avi (Size: 453.46 MB) (Files: 1)

 Avrupa.Yakasi.172.(03.12.2008).erhan00.avi

453.46 MB
 

Announce URL: http://open.tracker.thepiratebay.org/announce

Torrent description

General
Complete name : Avrupa.Yakasi.BL.(03.12.2008).erhan00.avi
Format : AVI
Format/Info : Audio Video Interleave
File size : 453 MiB
Duration : 1h 25mn
Overall bit rate : 746 Kbps
Writing library : MPlayer

Video
Format : MPEG-4 Visual
Format profile : Streaming [email protected]
Format settings, BVOP : Yes
Format settings, QPel : No
Format settings, GMC : No warppoints
Format settings, Matrix : Custom
Codec ID : XVID
Codec ID/Hint : XviD
Duration : 1h 25mn
Bit rate : 660 Kbps
Width : 512 pixels
Height : 384 pixels
Display aspect ratio : 4/3
Frame rate : 25.000 fps
Resolution : 8 bits
Colorimetry : 4:2:0
Scan type : Progressive
Bits/(Pixel*Frame) : 0.134
Stream size : 401 MiB (88%)
Writing library : XviD 1.2.0.dev47 (UTC 2006-11-01)

Audio
Format : MPEG Audio
Format version : Version 1
Format profile : Layer 3
Codec ID : 55
Codec ID/Hint : MP3
Duration : 1h 25mn
Bit rate mode : Variable
Bit rate : 73.2 Kbps
Minimum bit rate : 80.0 Kbps
Channel(s) : 1 channel
Sampling rate : 48.0 KHz
Resolution : 16 bits
Stream size : 44.5 MiB (10%)
Alignment : Aligned on interleaves
Interleave, duration : 24 ms (0.60 video frame)
Interleave, preload duration : 556 ms
Writing library : LAME3.97
Encoding settings : ABR

related torrents

Torrent name

health leech seeds Size
 

comments (0)

Main Menu