TV - Other

Adanali 24 Bolum

  • Download 5x Faster
  • Download torrent
  • Direct Download
  • Rate this torrent +  |  -
Adanali 24 Bolum

Free and Direct Download with Usenet.nl 300GB+ free


Torrent info

Name:Adanali 24 Bolum

Total Size: 356.32 MB

Magnet: Magnet Link

Seeds: 0

Leechers: 0

Stream: Watch Online @ Movie4u

Last Updated: 2010-09-25 10:44:54 (Update Now)

Torrent added: 2009-08-23 16:46:59





Torrent Files List


thumbs.png (Size: 356.32 MB) (Files: 3)

 thumbs.png

1.00 MB

 Adanali.24.Bolum.divx

355.32 MB

 info.txt

1.95 KB
 

Announce URL: http://open.tracker.thepiratebay.org/announce

Torrent description

General
Complete name : Adanali.24.Bolum.divx
Format : DivX
Format/Info : Hack of AVI
File size : 355 MiB
Duration : 1h 39mn
Overall bit rate : 499 Kbps

Video
Format : MPEG-4 Visual
Format settings, BVOP : Yes
Format settings, QPel : No
Format settings, GMC : No warppoints
Format settings, Matrix : Default
Muxing mode : Packed bitstream
Codec ID : DX50
Codec ID/Hint : DivX 5
Duration : 1h 39mn
Bit rate : 433 Kbps
Width : 512 pixels
Height : 384 pixels
Display aspect ratio : 4/3
Frame rate : 25.000 fps
Resolution : 24 bits
Colorimetry : 4:2:0
Scan type : Progressive
Bits/(Pixel*Frame) : 0.088
Stream size : 309 MiB (87%)
Title : Video
Writing library : DivX 2151

Audio
Format : MPEG Audio
Format version : Version 1
Format profile : Layer 3
Codec ID : 55
Codec ID/Hint : MP3
Duration : 1h 39mn
Bit rate mode : Constant
Bit rate : 56.0 Kbps
Channel(s) : 1 channel
Sampling rate : 48.0 KHz
Resolution : 16 bits
Stream size : 39.9 MiB (11%)
Alignment : Split accross interleaves
Interleave, duration : 40 ms (1.00 video frame)
Interleave, preload duration : 500 ms
Title : Audio

related torrents

Torrent name

health leech seeds Size

Adanali 18 bolum HD

0 0 6.37 GB 0

Adanali Bolum 1 5

0 0 2.00 GB 0

Adanali Bolum 07-08-09 avi

0 0 700.26 MB 0

Adanali Bolum 03-04 avi

0 0 700.03 MB 0

Adanali Bolum 05-06 avi

0 0 700.00 MB 0
 

comments (0)

Main Menu