TV - Other

A Team S05 German DVDRip XviD iNSPiRED

  • Download 5x Faster
  • Download torrent
  • Direct Download
  • Rate this torrent +  |  -
A Team S05 German DVDRip XviD iNSPiRED

Free and Direct Download with Usenet 300GB+ free


Torrent info

Name:A Team S05 German DVDRip XviD iNSPiRED

Total Size: 4.44 GB

Magnet: Magnet Link

Seeds: 0

Leechers: 0

Stream: Watch Online @ Movie4u

Last Updated: 2012-03-03 15:46:42 (Update Now)

Torrent added: 2009-08-23 16:43:41




Torrent Files List


Das.A-Team.S05E13.Mord.a.la.carte.German.DVDRip.XviD-iNSPiRED (Size: 4.44 GB) (Files: 13)

 Das.A-Team.S05E13.Mord.a.la.carte.German.DVDRip.XviD-iNSPiRED

  isd-ateamdxvid-s05e13.avi

349.97 MB

 Das.A-Team.S05E12.Landesverrat.German.DVDRip.XviD-iNSPiRED

  isd-ateamdxvid-s05e12.avi

349.97 MB

 Das.A-Team.S05E11.Man.liebt.nur.zweimal.German.DVDRip.XviD-iNSPiRED

  isd-ateamdxvid-s05e11.avi

349.97 MB

 Das.A-Team.S05E10.Unter.Kannibalen.German.DVDRip.XviD-iNSPiRED

  isd-ateamdxvid-s05e10.avi

349.93 MB

 Das.A-Team.S05E09.Countdown.in.Hong.Kong.German.DVDRip.XviD-iNSPiRED

  isd-ateamdxvid-s05e09.avi

349.97 MB

 Das.A-Team.S05E08.Glueckstreffer.German.DVDRip.XviD-iNSPiRED

  isd-ateamdxvid-s05e08.avi

349.94 MB

 Das.A-Team.S05E07.B.A.s.goldener.Schuss.German.DVDRip.XviD-iNSPiRED

  isd-ateamdxvid-s05e07.avi

349.92 MB

 Das.A-Team.S05E06.Codename.Brown.Fox.German.DVDRip.XviD-iNSPiRED

  isd-ateamdxvid-s05e06.avi

349.97 MB

 Das.A-Team.S05E05.Es.lebe.die.Revolution.German.DVDRip.XviD-iNSPiRED

  isd-ateamdxvid-s05e05.avi

349.88 MB

 Das.A-Team.S05E04.Touch.Down.German.DVDRip.XviD-iNSPiRED

  isd-ateamdxvid-s05e04.avi

349.97 MB

 Das.A-Team.S05E03.Man.stirbt.nicht.zweimal.German.DVDRip.XviD-iNSPiRED

  isd-ateamdxvid-s05e03.avi

349.97 MB

 Das.A-Team.S05E02.Helden.vor.Gericht.German.DVDRip.XviD-iNSPiRED

  isd-ateamdxvid-s05e02.avi

349.97 MB

 Das.A-Team.S05E01.Hoffnung.in.Barcelona.German.DVDRip.READ.NFO.REPACK.XviD-iNSPiRED

  isd-ateamdxvid-s05e01rp.avi

349.98 MB
 

Announce URL:

Torrent description

...::::Edelweis-Group Presents::::...

Torrent Name: The A-Team Season 5 Complete

-------------------------

--> Movie/Serie

Sprache: [X] Deutsch [ ] Englisch [ ] siehe Beschreibung

Video: [ ] HDTV [X] DVD [ ] TV/dTV [ ] TS [ ] Cam [ ] Sonstiges
Audio: [ ] AC3 [X] DVD [ ] TV/dTV [ ] LD [ ] Micro [ ] Sonstiges

Genre: TV-Serie/Action


Untertitel: keine

Extras: keine



-------------------------
Beschreibung:

Serienupload: Teil 5/5 Ende der Serie

1973 wurden vier Maenner namens John "Hanibal" Smith, B.A. Baracus,
Tampelton "Faceman" Peck und Howling Mad Murdock fuer ein Verbrechen
beschuldigt, das sie nicht begangen hatten. Seitdem werden sie von
der Militaer-Polizei gesucht. Sie haben sich vorgenommen Menschen zu
helfen, die ihre Hilfe brauchen.

-------------------------
Technische Details:
General
Complete name : isd-ateamdxvid-s05e01rp.avi
Format : AVI
Format/Info : Audio Video Interleave
File size : 350 MiB
Duration : 44mn 45s
Overall bit rate : 1093 Kbps
Writing application : VirtualDubMod 1.5.10.2 (build 2540/release)
Writing library : VirtualDubMod build 2540/release

Video
Format : MPEG-4 Visual
Format profile : Streaming Video@L1
Format settings, BVOP : Yes
Format settings, QPel : No
Format settings, GMC : No warppoints
Format settings, Matrix : Default
Codec ID : XVID
Codec ID/Hint : XviD
Duration : 44mn 45s
Bit rate : 952 Kbps
Width : 512 pixels
Height : 384 pixels
Display aspect ratio : 4/3
Frame rate : 25.000 fps
Resolution : 8 bits
Colorimetry : 4:2:0
Scan type : Progressive
Bits/(Pixel*Frame) : 0.194
Stream size : 305 MiB (87)
Writing library : XviD 1.1.2 (UTC 2006-11-01)

Audio
Format : MPEG Audio
Format version : Version 1
Format profile : Layer 3
Codec ID : 55
Codec ID/Hint : MP3
Duration : 44mn 45s
Bit rate mode : Variable
Bit rate : 128 Kbps
Channel(s) : 2 channels
Sampling rate : 48.0 KHz
Resolution : 16 bits
Stream size : 41.0 MiB (12)
Alignment : Aligned on interleaves
Interleave, duration : 24 ms (0.60 video frame)
Interleave, preload duration : 434 ms
Writing library : LAME3.90.
Encoding settings : ABR

related torrents

Torrent name

health leech seeds Size
 

comments (0)

Main Menu