TV - Other

A Team S04 German DVDRip XviD iNSPiRED

  • Download 5x Faster
  • Download torrent
  • Direct Download
  • Rate this torrent +  |  -
A Team S04 German DVDRip XviD iNSPiRED

Free and Direct Download with Usenet 300GB+ free


Torrent info

Name:A Team S04 German DVDRip XviD iNSPiRED

Total Size: 7.86 GB

Magnet: Magnet Link

Seeds: 0

Leechers: 0

Stream: Watch Online @ Movie4u

Last Updated: 2010-08-25 06:01:05 (Update Now)

Torrent added: 2009-08-23 16:43:40




Torrent Files List


A-Team.S04E23.Zurueck.in.Vietnam.German.DVDRip.XviD-iNSPiRED (Size: 7.86 GB) (Files: 23)

 A-Team.S04E23.Zurueck.in.Vietnam.German.DVDRip.XviD-iNSPiRED

  isd-ateamxvid-s04e23.avi

350.00 MB

 A-Team.S04E22.Der.Boss.ist.gar.nicht.tot.German.DVDRip.XviD-iNSPiRED

  isd-ateamxvid-s04e22.avi

350.00 MB

 A-Team.S04E21.Aerger.mit.Harry.German.DVDRip.XviD-iNSPiRED

  isd-ateamxvid-s04e21.avi

350.00 MB

 A-Team.S04E20.Lederstrumpf.reitet.weiter.German.DVDRip.XviD-iNSPiRED

  isd-ateamxvid-s04e20.avi

349.84 MB

 A-Team.S04E19.Ein.Jugendfreund.in.Noeten.German.DVDRip.XviD-iNSPiRED

  isd-ateamxvid-s04e19.avi

349.87 MB

 A-Team.S04E18.Hannibals.rettender.Plan.German.DVDRip.XviD-iNSPiRED

  isd-ateamxvid-s04e18.avi

349.85 MB

 A-Team.S04E17.Der.Schein.truegt.German.DVDRip.XviD-iNSPiRED

  isd-ateamxvid-s04e17.avi

350.01 MB

 A-Team.S04E16.George.der.Cowboy.German.DVDRip.XviD-iNSPiRED

  isd-ateamxvid-s04e16.avi

350.01 MB

 A-Team.S04E15.Nur.fuer.Mitglieder.German.DVDRip.XviD-iNSPiRED

  isd-ateamxvid-s04e15.avi

350.01 MB

 A-Team.S04E14.Feinde.unter.sich.German.DVDRip.XviD-iNSPiRED

  isd-ateamxvid-s04e14.avi

350.00 MB

 A-Team.S04E13.Gluecksrad.German.DVDRip.XviD-iNSPiRED

  isd-ateamxvid-s04e13.avi

350.00 MB

 A-Team.S04E12.Ein.Baerendienst.German.DVDRip.XviD-iNSPiRED

  isd-ateamxvid-s04e12.avi

350.01 MB

 A-Team.S04E11.Diagnose.Groessenwahn.German.DVDRip.XviD-iNSPiRED

  isd-ateamxvid-s04e11.avi

349.84 MB

 A-Team.S04E10.Die.lieben.Nachbarn.German.DVDRip.XviD-iNSPiRED

  isd-ateamxvid-s04e10.avi

350.01 MB

 A-Team.S04E09.Der.rote.Tod.und.seine.Tochter.German.DVDRip.XviD-iNSPiRED

  isd-ateamxvid-s04e09.avi

350.01 MB

 A-Team.S04E08.Blood.Sweat.und.Cheers.German.DVDRip.XviD-iNSPiRED

  isd-ateamxvid-s04e08.avi

349.82 MB

 A-Team.S04E07.Das.FBI.ist.immer.dabei.German.DVDRip.XviD-iNSPiRED

  isd-ateamxvid-s04e07.avi

349.85 MB

 A-Team.S04E06.Hinter.Gittern.German.DVDRip.XviD-iNSPiRED

  isd-ateamxvid-s04e06.avi

350.01 MB

 A-Team.S04E05.Der.Pennbruder.German.DVDRip.XviD-iNSPiRED

  isd-ateamxvid-s04e05.avi

350.01 MB

 A-Team.S04E04.Mutter.in.Not.German.DVDRip.XviD-iNSPiRED

  isd-ateamxvid-s04e04.avi

350.00 MB

 A-Team.S04E03.Wo.ist.das.Monster.wenn.man.es.braucht.German.DVDRip.XviD-iNSPiRED

  isd-ateamxvid-s04e03.avi

349.37 MB

 A-Team.S04E02.Eine.Seefahrt.die.ist.lustig.Teil2.German.DVDRip.XviD-iNSPiRED

  isd-ateamxvid-s04e02.avi

349.34 MB

 A-Team.S04E01.Eine.Seefahrt.die.ist.lustig.Teil1.German.DVDRip.XviD-iNSPiRED

  isd-ateamxvid-s04e01.avi

350.00 MB
 

Announce URL: http://tbtracker.lir.dk/announce.php

Torrent description

...::::Edelweis-Group Presents::::...

Torrent Name: The A-Team Season 4 Complete

-------------------------

--> Movie/Serie

Sprache: [X] Deutsch [ ] Englisch [ ] siehe Beschreibung

Video: [ ] HDTV [X] DVD [ ] TV/dTV [ ] TS [ ] Cam [ ] Sonstiges
Audio: [ ] AC3 [X] DVD [ ] TV/dTV [ ] LD [ ] Micro [ ] Sonstiges

Genre: TV-Serie/Action


Untertitel: keine

Extras: keine



-------------------------
Beschreibung:

Serienupload: Teil 4/5 Restliche Teile folgen

1973 wurden vier Maenner namens John "Hanibal" Smith, B.A. Baracus,
Tampelton "Faceman" Peck und Howling Mad Murdock fuer ein Verbrechen
beschuldigt, das sie nicht begangen hatten. Seitdem werden sie von
der Militaer-Polizei gesucht. Sie haben sich vorgenommen Menschen zu
helfen, die ihre Hilfe brauchen.

-------------------------
Technische Details:
General
Format : AVI
Format/Info : Audio Video Interleave
File size : 350 MiB
Duration : 46mn 42s
Overall bit rate : 1048 Kbps
Writing application : VirtualDubMod 1.5.4.1 (build 2178/release)
Writing library : VirtualDubMod build 2178/release
IAS1 : Deutsch

Video
Format : MPEG-4 Visual
Format profile : Streaming [email protected]
Format settings, BVOP : Yes
Format settings, QPel : No
Format settings, GMC : No warppoints
Format settings, Matrix : Custom
Codec ID : XVID
Codec ID/Hint : XviD
Duration : 46mn 42s
Bit rate : 931 Kbps
Width : 512 pixels
Height : 384 pixels
Display aspect ratio : 4/3
Frame rate : 25.000 fps
Resolution : 8 bits
Colorimetry : 4:2:0
Scan type : Progressive
Bits/(Pixel*Frame) : 0.189
Stream size : 311 MiB (89)
Writing library : XviD 1.2.0SMP (UTC 2006-01-08)

Audio
Format : MPEG Audio
Format version : Version 1
Format profile : Layer 3
Codec ID : 55
Codec ID/Hint : MP3
Duration : 46mn 42s
Bit rate mode : Variable
Bit rate : 104 Kbps
Minimum bit rate : 128 Kbps
Channel(s) : 2 channels
Sampling rate : 48.0 KHz
Resolution : 16 bits
Stream size : 34.7 MiB (10)
Alignment : Aligned on interleaves
Interleave, duration : 24 ms (0.60 video frame)
Interleave, preload duration : 557 ms
Writing library : LAME3.97b
Encoding settings : ABR

related torrents

Torrent name

health leech seeds Size
 

comments (0)

Main Menu