TV - Other

A Team S03 German DVDRiP XviD CDD

  • Download 5x Faster
  • Download torrent
  • Direct Download
  • Rate this torrent +  |  -
A Team S03 German DVDRiP XviD CDD

Download FREE And Anonymously


Torrent info

Name:A Team S03 German DVDRiP XviD CDD

Total Size: 8.54 GB

Magnet: Magnet Link

Seeds: 0

Leechers: 1

Stream: Watch Full Movie @ Movie4u

Last Updated: 2015-05-24 21:22:41 (Update Now)

Torrent added: 2009-08-23 16:43:38



VPN For Torrents

Torrent Files List


The.A-Team.S03E25.Richtig.koedern.will.gelernt.sein.German.DVDRiP.XviD-CDD (Size: 8.54 GB) (Files: 25)

 The.A-Team.S03E25.Richtig.koedern.will.gelernt.sein.German.DVDRiP.XviD-CDD

  cdd-ateam_dvdrip_s03e25.avi

349.64 MB

 The.A-Team.S03E24.Wirb.oder.stirb.German.DVDRiP.XviD-CDD

  cdd-ateam_dvdrip_s03e24.avi

349.96 MB

 The.A-Team.S03E23.Original.oder.Faelschung.German.DVDRiP.XviD-CDD

  cdd-ateam_dvdrip_s03e23.avi

349.97 MB

 The.A-Team.S03E22.Kopfgeldjaeger.German.DVDRiP.XviD-CDD

  cdd-ateam_dvdrip_s03e22.avi

349.86 MB

 The.A-Team.S03E21.Ausgeliefert.German.DVDRiP.XviD-CDD

  cdd-ateam_dvdrip_s03e21.avi

349.96 MB

 The.A-Team.S03E20.Ritter.der.Landstrasse.German.DVDRiP.XviD-CDD

  cdd-ateam_dvdrip_s03e20.avi

349.71 MB

 The.A-Team.S03E19.Entfuehrung.auf.arabisch.German.DVDRiP.XviD-CDD

  cdd-ateam_dvdrip_s03e19.avi

349.78 MB

 The.A-Team.S03E18.Roulette.auf.Raedern.German.DVDRiP.XviD-CDD

  cdd-ateam_dvdrip_s03e18.avi

349.96 MB

 The.A-Team.S03E17.Elfenbein.aus.Kenia.German.DVDRiP.XviD-CDD

  cdd-ateam_dvdrip_s03e17.avi

349.96 MB

 The.A-Team.S03E16.Boxkaempfe.German.DVDRiP.XviD-CDD

  cdd-ateam_dvdrip_s03e16.avi

349.97 MB

 The.A-Team.S03E15.Geldhaie.German.DVDRiP.XviD-CDD

  cdd-ateam_dvdrip_s03e15.avi

349.96 MB

 The.A-Team.S03E14.Heisse.Kueche.German.DVDRiP.XviD-CDD

  cdd-ateam_dvdrip_s03e14.avi

349.96 MB

 The.A-Team.S03E13.Die.100000.Dollar.Frau.German.DVDRiP.XviD-CDD

  cdd-ateam_dvdrip_s03e13.avi

349.96 MB

 The.A-Team.S03E12.Haute.Couture.German.DVDRiP.XviD-CDD

  cdd-ateam_dvdrip_s03e12.avi

349.96 MB

 The.A-Team.S03E11.Liederzirkus.German.DVDRiP.XviD-CDD

  cdd-ateam_dvdrip_s03e11.avi

349.96 MB

 The.A-Team.S03E10.Die.Auferstehung.des.toten.Ingenieurs.German.DVDRiP.XviD-CDD

  cdd-ateam_dvdrip_s03e10.avi

349.96 MB

 The.A-Team.S03E09.Plagiatoren.German.DVDRiP.XviD-CDD

  cdd-ateam_dvdrip_s03e09.avi

349.96 MB

 The.A-Team.S03E08.Drogen.und.Krokodile.German.DVDRiP.XviD-CDD

  cdd-ateam_dvdrip_s03e08.avi

350.55 MB

 The.A-Team.S03E07.Aerger.auf.Raedern.German.DVDRiP.XviD-CDD

  cdd-ateam_dvdrip_s03e07.avi

349.63 MB

 The.A-Team.S03E06.Der.Kronzeuge.German.DVDRiP.XviD-CDD

  cdd-ateam_dvdrip_s03e06.avi

349.63 MB

 The.A-Team.S03E05.Der.Herr.des.Waldes.German.DVDRiP.XviD-CDD

  cdd-ateam_dvdrip_s03e05.avi

349.64 MB

 The.A-Team.S03E04.Feueralarm.German.DVDRiP.XviD-CDD

  cdd-ateam_dvdrip_s03e04.avi

349.96 MB

 The.A-Team.S03E03.Die.versunkene.Stadt.Teil.2.German.DVDRiP.XviD-CDD

  cdd-ateam_dvdrip_s03e03.avi

349.30 MB

 The.A-Team.S03E02.Die.versunkene.Stadt.Teil.1.German.DVDRiP.XviD-CDD

  cdd-ateam_dvdrip_s03e02.avi

349.21 MB

 The.A-Team.S03E01.Schatten.im.Sonnenparadies.German.DVDRiP.XviD-CDD

  cdd-ateam_dvdrip_s03e01.avi

349.46 MB
 

tracker

leech seeds
 

Torrent description

...::::Edelweis-Group Presents::::...

Torrent Name: The A-Team Season 3 Complete

-------------------------

--> Movie/Serie

Sprache: [X] Deutsch [ ] Englisch [ ] siehe Beschreibung

Video: [ ] HDTV [X] DVD [ ] TV/dTV [ ] TS [ ] Cam [ ] Sonstiges
Audio: [ ] AC3 [X] DVD [ ] TV/dTV [ ] LD [ ] Micro [ ] Sonstiges

Genre: TV-Serie/Action


Untertitel: keine

Extras: keine



-------------------------
Beschreibung:

Serienupload: Teil 3/5 Restliche Teile folgen

1973 wurden vier Maenner namens John "Hanibal" Smith, B.A. Baracus,
Tampelton "Faceman" Peck und Howling Mad Murdock fuer ein Verbrechen
beschuldigt, das sie nicht begangen hatten. Seitdem werden sie von
der Militaer-Polizei gesucht. Sie haben sich vorgenommen Menschen zu
helfen, die ihre Hilfe brauchen.

-------------------------
Technische Details:
General
Format : AVI
Format/Info : Audio Video Interleave
File size : 349 MiB
Duration : 43mn 21s
Overall bit rate : 1127 Kbps
Writing application : VirtualDubMod 1.5.10.2 (build 2540/release)
Writing library : VirtualDubMod build 2540/release

Video
Format : MPEG-4 Visual
Format profile : Streaming [email protected]
Format settings, BVOP : Yes
Format settings, QPel : No
Format settings, GMC : No warppoints
Format settings, Matrix : Default
Muxing mode : Packet Bitstream
Codec ID : XVID
Codec ID/Hint : XviD
Duration : 43mn 21s
Bit rate : 982 Kbps
Width : 512 pixels
Height : 384 pixels
Display aspect ratio : 4/3
Frame rate : 25.000 fps
Resolution : 8 bits
Colorimetry : 4:2:0
Scan type : Progressive
Bits/(Pixel*Frame) : 0.200
Stream size : 305 MiB (87)
Writing library : XviD 1.2.0SMP (UTC 2006-01-08)

Audio
Format : MPEG Audio
Format version : Version 1
Format profile : Layer 3
Codec ID : 55
Codec ID/Hint : MP3
Duration : 43mn 21s
Bit rate mode : Variable
Bit rate : 132 Kbps
Nominal bit rate : 128 Kbps
Channel(s) : 2 channels
Sampling rate : 48.0 KHz
Resolution : 16 bits
Stream size : 40.9 MiB (12)
Alignment : Aligned on interleaves
Interleave, duration : 24 ms (0.60 video frame)
Writing library : LAME3.90.
Encoding settings : ABR


related torrents

Torrent name

health leech seeds Size
 


comments (0)

Main Menu

 

script data-cfasync="false" src="//d2ghscazvn398x.cloudfront.net/?cshgd=690275">