TV - Other

A Team S02 German DVDRiP XviD MSE

  • Download 5x Faster
  • Download torrent
  • Direct Download
  • Rate this torrent +  |  -
A Team S02 German DVDRiP XviD MSE

Free and Direct Download with Usenet.nl 300GB+ free


Torrent info

Name:A Team S02 German DVDRiP XviD MSE

Total Size: 7.90 GB

Magnet: Magnet Link

Seeds: 0

Leechers: 0

Stream: Watch Online @ Movie4u

Last Updated: 2015-05-24 21:23:00 (Update Now)

Torrent added: 2009-08-23 16:43:38





Torrent Files List


The.A-Team.S02E23.Das.Spiel.ist.aus.German.DVDRiP.XviD-MSE (Size: 7.90 GB) (Files: 28)

 The.A-Team.S02E23.Das.Spiel.ist.aus.German.DVDRiP.XviD-MSE

  mse-ateam-s02e23.avi

349.44 MB

 The.A-Team.S02E22.Brennende.Gemeinde.German.DVDRiP.XviD-MSE

  mse-ateam-s02e22.avi

349.46 MB

 The.A-Team.S02E21.Ueberlebenstraining.German.DVDRiP.XviD-MSE

  mse-ateam-s02e21.avi

349.44 MB

 The.A-Team.S02E20.Ein.Kinderspiel.German.DVDRiP.XviD-MSE

  mse-ateam-s02e20.avi

349.45 MB

 The.A-Team.S02E19.Gebrauchtwagenhandel.German.DVDRiP.XviD-MSE

  mse-ateam-s02e19.avi

349.43 MB

 The.A-Team.S02E18.Skorpione.German.DVDRiP.XviD-MSE

  mse-ateam-s02e18.avi

349.43 MB

 The.A-Team.S02E17.Schwarzbrenner.German.DVDRiP.XviD-MSE

  mse-ateam-s02e17.avi

349.44 MB

 The.A-Team.S02E16.Scheingefechte.German.DVDRiP.XviD-MSE

  mse-ateam-s02e16.avi

349.44 MB

 The.A-Team.S02E15.Die.neue.Dame.German.DVDRiP.XviD-MSE

  mse-ateam-s02e15.avi

349.43 MB

 The.A-Team.S02E14.Grenzschiebereien.German.DVDRiP.XviD-MSE

  mse-ateam-s02e14.avi

349.43 MB

 The.A-Team.S02E13.Die.Malteser.Kuh.German.DVDRiP.XviD-MSE

  mse-ateam-s02e13.avi

349.45 MB

 The.A-Team.S02E12.Gut.gewaehlt.ist.halb.gemordet.German.DVDRiP.XviD-MSE

  mse-ateam-s02e12.avi

349.46 MB

 The.A-Team.S02E11.Auf.Sand.gebaut.German.DVDRiP.XviD-MSE

  mse-ateam-s02e11.avi

349.46 MB

 The.A-Team.S02E10.Wasserspiele.German.DVDRiP.XviD-MSE

  mse-ateam-s02e10.avi

349.44 MB

 The.A-Team.S02E09.Garbers.letzter.Fang.German.DVDRiP.XviD-MSE

  mse-ateam-s02e09.avi

349.71 MB

 The.A-Team.S02E08.Arbeitskampf.German.DVDRiP.XviD-MSE

  mse-ateam-s02e08.avi

349.48 MB

 The.A-Team.S02E07.Karambolagen.German.DVDRiP.XviD-MSE

  mse-ateam-s02e07.avi

349.43 MB

 The.A-Team.S02E05E06.Wilde.Mustangs.German.DVDRiP.XviD-MSE

  mse-ateam-s02e05e06.avi

698.86 MB

 The.A-Team.S02E04.Marias.Mutter.German.DVDRiP.XviD-MSE

  mse-ateam-s02e04.avi

349.45 MB

 The.A-Team.S02E03.Zwei.Nonnen.zuviel.German.DVDRiP.XviD-MSE

  mse-ateam-s02e03.avi

349.44 MB

 The.A-Team.S02E02.Der.singende.Golfball.German.DVDRiP.XviD-MSE

  mse-ateam-s02e02.avi

349.42 MB

 The.A-Team.S02E01.Diamantenfieber.German.DVDRiP.XviD-MSE

  mse-ateam-s02e01.avi

349.43 MB

 The.A-Team.S02.Subpack.German.DVDRiP.XviD-MSE

  mse-ateam-s02-german-subs.sfv

0.16 KB

  mse-ateam-s02-german-subs.nfo

10.04 KB

  mse-ateam-s02-german-subs.r00

14.31 MB

  mse-ateam-s02-german-subs.rar

14.31 MB

  mse-ateam-s02-german-subs.r02

9.74 MB

  mse-ateam-s02-german-subs.r01

14.31 MB
 

tracker

leech seeds
 

Torrent description

...::::Edelweis-Group Presents::::...

Torrent Name: The A-Team Season 2 Complete

-------------------------

--> Movie/Serie

Sprache: [X] Deutsch [ ] Englisch [ ] siehe Beschreibung

Video: [ ] HDTV [X] DVD [ ] TV/dTV [ ] TS [ ] Cam [ ] Sonstiges
Audio: [ ] AC3 [X] DVD [ ] TV/dTV [ ] LD [ ] Micro [ ] Sonstiges

Genre: TV-Serie/Action


Untertitel: keine

Extras: keine



-------------------------
Beschreibung:

Serienupload: Teil 2/5 Restliche Teile folgen

1973 wurden vier Maenner namens John "Hanibal" Smith, B.A. Baracus,
Tampelton "Faceman" Peck und Howling Mad Murdock fuer ein Verbrechen
beschuldigt, das sie nicht begangen hatten. Seitdem werden sie von
der Militaer-Polizei gesucht. Sie haben sich vorgenommen Menschen zu
helfen, die ihre Hilfe brauchen.

-------------------------
Technische Details:
General
Format : AVI
Format/Info : Audio Video Interleave
File size : 349 MiB
Duration : 46mn 1s
Overall bit rate : 1061 Kbps
Writing application : VirtualDubMod 1.5.10.1 (build 2439/release)
Writing library : VirtualDubMod build 2439/release

Video
Format : MPEG-4 Visual
Format profile : Streaming [email protected]
Format settings, BVOP : Yes
Format settings, QPel : No
Format settings, GMC : No warppoints
Format settings, Matrix : Default
Codec ID : XVID
Codec ID/Hint : XviD
Duration : 46mn 1s
Bit rate : 922 Kbps
Width : 512 pixels
Height : 384 pixels
Display aspect ratio : 4/3
Frame rate : 25.000 fps
Resolution : 8 bits
Colorimetry : 4:2:0
Scan type : Progressive
Bits/(Pixel*Frame) : 0.188
Stream size : 304 MiB (87)
Writing library : XviD 1.0.3 (UTC 2004-12-20)

Audio
Format : MPEG Audio
Format version : Version 1
Format profile : Layer 3
Codec ID : 55
Codec ID/Hint : MP3
Duration : 46mn 1s
Bit rate mode : Variable
Bit rate : 126 Kbps
Nominal bit rate : 128 Kbps
Channel(s) : 2 channels
Sampling rate : 48.0 KHz
Resolution : 16 bits
Stream size : 41.6 MiB (12)
Alignment : Aligned on interleaves
Interleave, duration : 24 ms (0.60 video frame)
Interleave, preload duration : 422 ms
Writing library : LAME3.90.
Encoding settings : ABR

related torrents

Torrent name

health leech seeds Size
 

comments (0)

Main Menu