TV - Other

A Team S01 German DVDRiP XviD MSE

  • Download 5x Faster
  • Download torrent
  • Direct Download
  • Rate this torrent +  |  -
A Team S01 German DVDRiP XviD MSE

Anonymous and Direct Download 300GB+ free


Torrent info

Name:A Team S01 German DVDRiP XviD MSE

Total Size: 4.77 GB

Magnet: Magnet Link

Seeds: 0

Leechers: 0

Stream: Watch Online @ Movie4u

Last Updated: 2015-05-24 21:23:27 (Update Now)

Torrent added: 2009-08-23 16:43:37




Torrent Files List


The.A-Team.S01E14.Aerger.im.vierten.Monat.German.DVDRiP.XviD-MSE (Size: 4.77 GB) (Files: 13)

 The.A-Team.S01E14.Aerger.im.vierten.Monat.German.DVDRiP.XviD-MSE

  mse-ateam-s01e14.avi

349.45 MB

 The.A-Team.S01E13.Loesegeld.fuer.einen.Jumbo.German.DVDRiP.XviD-MSE

  mse-ateam-s01e13.avi

349.41 MB

 The.A-Team.S01E12.Bis.dass.der.Tod.uns.scheidet.German.DVDRiP.XviD-MSE

  mse-ateam-s01e12.avi

349.42 MB

 The.A-Team.S01E11.Ein.bisschen.mehr.Zeit.German.DVDRiP.XviD-MSE

  mse-ateam-s01e11.avi

349.42 MB

 The.A-Team.S01E10.Reife.Melonen.German.DVDRiP.XviD-MSE

  mse-ateam-s01e10.avi

349.42 MB

 The.A-Team.S01E09.Bruchlandung.German.DVDRiP.XviD-MSE

  mse-ateam-s01e09.avi

349.40 MB

 The.A-Team.S01E08.Muellaktion.in.Manhattan.German.DVDRiP.XviD-MSE

  mse-ateam-s01e08.avi

349.42 MB

 The.A-Team.S01E07.Ein.todsicheres.System.German.DVDRiP.XviD-MSE

  mse-ateam-s01e07.avi

349.43 MB

 The.A-Team.S01E06.Blutsbande.German.DVDRiP.XviD-MSE

  mse-ateam-s01e06.avi

349.43 MB

 The.A-Team.S01E05.Woelfe.in.Uniform.German.DVDRiP.XviD-MSE

  mse-ateam-s01e05.avi

349.44 MB

 The.A-Team.S01E04.Auf.Leben.und.Tod.German.DVDRiP.XviD-MSE

  mse-ateam-s01e04.avi

349.43 MB

 The.A-Team.S01E03.Fegefeuer.German.DVDRiP.XviD-MSE

  mse-ateam-s01e03.avi

349.46 MB

 The.A-Team.S01E01E02.Verschollen.in.Mexico.German.DVDRiP.XviD-MSE

  mse-ateam-s01e01e02.avi

695.13 MB
 

tracker

leech seeds
 

Torrent description

..::::Edelweis-Group Presents::::...

Torrent Name: The A-Team Season 1 Complete

-------------------------

--> Movie/Serie

Sprache: [X] Deutsch [ ] Englisch [ ] siehe Beschreibung

Video: [ ] HDTV [X] DVD [ ] TV/dTV [ ] TS [ ] Cam [ ] Sonstiges
Audio: [ ] AC3 [X] DVD [ ] TV/dTV [ ] LD [ ] Micro [ ] Sonstiges

Genre: TV-Serie/Action


Untertitel: keine

Extras: keine



-------------------------
Beschreibung:

Serienupload: Teil 1/5 Restliche Teile folgen

1973 wurden vier Maenner namens John "Hanibal" Smith, B.A. Baracus,
Tampelton "Faceman" Peck und Howling Mad Murdock fuer ein Verbrechen
beschuldigt, das sie nicht begangen hatten. Seitdem werden sie von
der Militaer-Polizei gesucht. Sie haben sich vorgenommen Menschen zu
helfen, die ihre Hilfe brauchen.

-------------------------
Technische Details:
General
Format : AVI
Format/Info : Audio Video Interleave
File size : 349 MiB
Duration : 44mn 19s
Overall bit rate : 1102 Kbps
Writing application : VirtualDubMod 1.5.10.1 (build 2439/release)
Writing library : VirtualDubMod build 2439/release

Video
Format : MPEG-4 Visual
Format profile : Streaming [email protected]
Format settings, BVOP : Yes
Format settings, QPel : No
Format settings, GMC : No warppoints
Format settings, Matrix : Default
Codec ID : XVID
Codec ID/Hint : XviD
Duration : 44mn 19s
Bit rate : 962 Kbps
Width : 512 pixels
Height : 384 pixels
Display aspect ratio : 4/3
Frame rate : 25.000 fps
Resolution : 8 bits
Colorimetry : 4:2:0
Scan type : Progressive
Bits/(Pixel*Frame) : 0.196
Stream size : 305 MiB (87)
Writing library : XviD 1.0.3 (UTC 2004-12-20)

Audio
Format : MPEG Audio
Format version : Version 1
Format profile : Layer 3
Codec ID : 55
Codec ID/Hint : MP3
Duration : 44mn 19s
Bit rate mode : Variable
Bit rate : 127 Kbps
Nominal bit rate : 128 Kbps
Channel(s) : 2 channels
Sampling rate : 48.0 KHz
Resolution : 16 bits
Stream size : 40.3 MiB (12)
Alignment : Aligned on interleaves
Interleave, duration : 24 ms (0.60 video frame)
Interleave, preload duration : 504 ms
Writing library : LAME3.90.
Encoding settings : ABR

related torrents

Torrent name

health leech seeds Size
 


comments (0)

Main Menu