Action

Batman Gotham Knight 2008 Eng DVDRip FLAWL3SS xtremespeeds net

  • Download 5x Faster
  • Download torrent
  • Direct Download
  • Rate this torrent +  |  -
Batman Gotham Knight 2008 Eng DVDRip FLAWL3SS xtremespeeds net

Anonymous and free Direct Download 300GB+


Torrent info

Name:Batman Gotham Knight 2008 Eng DVDRip FLAWL3SS xtremespeeds net

Total Size: 696.83 MB

Magnet: Magnet Link

Seeds: 4

Leechers: 1

Stream: Watch Online @ Movie4u

Last Updated: 0000-00-00 00:00:00 (Update Now)

Torrent added: 2008-06-29 21:36:52



VPN For Torrents

Torrent Files List


Batman.Gotham.Knight.2008.Eng.DVDRip.FLAWL3SS.nfo (Size: 696.83 MB) (Files: 52)

 Batman.Gotham.Knight.2008.Eng.DVDRip.FLAWL3SS.nfo

1.95 KB

 Batman.Gotham.Knight.2008.Eng.DVDRip.FLAWL3SS.part01.rar

14.31 MB

 Batman.Gotham.Knight.2008.Eng.DVDRip.FLAWL3SS.part02.rar

14.31 MB

 Batman.Gotham.Knight.2008.Eng.DVDRip.FLAWL3SS.part03.rar

14.31 MB

 Batman.Gotham.Knight.2008.Eng.DVDRip.FLAWL3SS.part04.rar

14.31 MB

 Batman.Gotham.Knight.2008.Eng.DVDRip.FLAWL3SS.part05.rar

14.31 MB

 Batman.Gotham.Knight.2008.Eng.DVDRip.FLAWL3SS.part06.rar

14.31 MB

 Batman.Gotham.Knight.2008.Eng.DVDRip.FLAWL3SS.part07.rar

14.31 MB

 Batman.Gotham.Knight.2008.Eng.DVDRip.FLAWL3SS.part08.rar

14.31 MB

 Batman.Gotham.Knight.2008.Eng.DVDRip.FLAWL3SS.part09.rar

14.31 MB

 Batman.Gotham.Knight.2008.Eng.DVDRip.FLAWL3SS.part10.rar

14.31 MB

 Batman.Gotham.Knight.2008.Eng.DVDRip.FLAWL3SS.part11.rar

14.31 MB

 Batman.Gotham.Knight.2008.Eng.DVDRip.FLAWL3SS.part12.rar

14.31 MB

 Batman.Gotham.Knight.2008.Eng.DVDRip.FLAWL3SS.part13.rar

14.31 MB

 Batman.Gotham.Knight.2008.Eng.DVDRip.FLAWL3SS.part14.rar

14.31 MB

 Batman.Gotham.Knight.2008.Eng.DVDRip.FLAWL3SS.part15.rar

14.31 MB

 Batman.Gotham.Knight.2008.Eng.DVDRip.FLAWL3SS.part16.rar

14.31 MB

 Batman.Gotham.Knight.2008.Eng.DVDRip.FLAWL3SS.part17.rar

14.31 MB

 Batman.Gotham.Knight.2008.Eng.DVDRip.FLAWL3SS.part18.rar

14.31 MB

 Batman.Gotham.Knight.2008.Eng.DVDRip.FLAWL3SS.part19.rar

14.31 MB

 Batman.Gotham.Knight.2008.Eng.DVDRip.FLAWL3SS.part20.rar

14.31 MB

 Batman.Gotham.Knight.2008.Eng.DVDRip.FLAWL3SS.part21.rar

14.31 MB

 Batman.Gotham.Knight.2008.Eng.DVDRip.FLAWL3SS.part22.rar

14.31 MB

 Batman.Gotham.Knight.2008.Eng.DVDRip.FLAWL3SS.part23.rar

14.31 MB

 Batman.Gotham.Knight.2008.Eng.DVDRip.FLAWL3SS.part24.rar

14.31 MB

 Batman.Gotham.Knight.2008.Eng.DVDRip.FLAWL3SS.part25.rar

14.31 MB

 Batman.Gotham.Knight.2008.Eng.DVDRip.FLAWL3SS.part26.rar

14.31 MB

 Batman.Gotham.Knight.2008.Eng.DVDRip.FLAWL3SS.part27.rar

14.31 MB

 Batman.Gotham.Knight.2008.Eng.DVDRip.FLAWL3SS.part28.rar

14.31 MB

 Batman.Gotham.Knight.2008.Eng.DVDRip.FLAWL3SS.part29.rar

14.31 MB

 Batman.Gotham.Knight.2008.Eng.DVDRip.FLAWL3SS.part30.rar

14.31 MB

 Batman.Gotham.Knight.2008.Eng.DVDRip.FLAWL3SS.part31.rar

14.31 MB

 Batman.Gotham.Knight.2008.Eng.DVDRip.FLAWL3SS.part32.rar

14.31 MB

 Batman.Gotham.Knight.2008.Eng.DVDRip.FLAWL3SS.part33.rar

14.31 MB

 Batman.Gotham.Knight.2008.Eng.DVDRip.FLAWL3SS.part34.rar

14.31 MB

 Batman.Gotham.Knight.2008.Eng.DVDRip.FLAWL3SS.part35.rar

14.31 MB

 Batman.Gotham.Knight.2008.Eng.DVDRip.FLAWL3SS.part36.rar

14.31 MB

 Batman.Gotham.Knight.2008.Eng.DVDRip.FLAWL3SS.part37.rar

14.31 MB

 Batman.Gotham.Knight.2008.Eng.DVDRip.FLAWL3SS.part38.rar

14.31 MB

 Batman.Gotham.Knight.2008.Eng.DVDRip.FLAWL3SS.part39.rar

14.31 MB

 Batman.Gotham.Knight.2008.Eng.DVDRip.FLAWL3SS.part40.rar

14.31 MB

 Batman.Gotham.Knight.2008.Eng.DVDRip.FLAWL3SS.part41.rar

14.31 MB

 Batman.Gotham.Knight.2008.Eng.DVDRip.FLAWL3SS.part42.rar

14.31 MB

 Batman.Gotham.Knight.2008.Eng.DVDRip.FLAWL3SS.part43.rar

14.31 MB

 Batman.Gotham.Knight.2008.Eng.DVDRip.FLAWL3SS.part44.rar

14.31 MB

 Batman.Gotham.Knight.2008.Eng.DVDRip.FLAWL3SS.part45.rar

14.31 MB

 Batman.Gotham.Knight.2008.Eng.DVDRip.FLAWL3SS.part46.rar

14.31 MB

 Batman.Gotham.Knight.2008.Eng.DVDRip.FLAWL3SS.part47.rar

14.31 MB

 Batman.Gotham.Knight.2008.Eng.DVDRip.FLAWL3SS.part48.rar

14.31 MB

 Batman.Gotham.Knight.2008.Eng.DVDRip.FLAWL3SS.part49.rar

2.97 MB

 Batman.Gotham.Knight.2008.Eng.DVDRip.FLAWL3SS.sfv

8.10 KB

 sample

  Batman.Gotham.Knight.2008.Eng.DVDRip.FLAWL3SS.Sample.avi

7.21 MB
 

Announce URL: http://xtremespeeds.net/announce.php?passkey=tssespecialtorrentv1byxamsep2007

Torrent description

General
Complete name : Batman.Gotham.Knight.2008.Eng.DVDRip.FLAWL3SS
Format : AVI
Format/Info : Audio Video Interleave
File size : 700 MiB
Duration : 1h 15mn
Overal bit rate : 1289 Kbps
Movie name : Batman - Gotham Knight
Writing application : M333-FLAWL3SS_RG

Video
Format : MPEG-4 Visual
Format profile : Streaming [email protected]
Format settings, BVOP : Yes
Format settings, QPel : No
Format settings, GMC : No warppoints
Format settings, Matrix : Custom
Codec ID : XVID
Codec ID/Hint : XviD
Duration : 1h 15mn
Bit rate : 1160 Kbps
Width : 720 pixels
Height : 416 pixels
Display aspect ratio : 16/9
Frame rate : 23.976 fps
Resolution : 8 bits
Colorimetry : 4:2:0
Scan type : Progressive
Bits/(Pixel*Frame) : 0.162
Stream size : 630 MiB
Writing library : XviD 1.2.0.dev47 (UTC 2006-11-01)

Audio
Format : MPEG Audio
Format version : Version 1
Format profile : Layer 3
Codec ID : 55
Codec ID/Hint : MP3
Duration : 1h 15mn
Bit rate mode : Constant
Bit rate : 32.0 Kbps
Channel(s) : 2 channels
Sampling rate : 48.0 KHz
Resolution : 16 bits
Stream size : 62.9 MiB
Writing library : LAME3.97
Language : english

related torrents

Torrent name

health leech seeds Size
 


comments (0)

Main Menu