TV - Other

100 FAVOURITE ANIMAL SONGS&RHYMES[DVDRIP][ENG] KIDZCORNER&J T R

  • Download 5x Faster
  • Download torrent
  • Direct Download
  • Rate this torrent +  |  -
100 FAVOURITE ANIMAL SONGS&RHYMES[DVDRIP][ENG] KIDZCORNER&J T R

Anonymous and free Direct Download 300GB+


Torrent info

Name:100 FAVOURITE ANIMAL SONGS&RHYMES[DVDRIP][ENG] KIDZCORNER&J T R

Total Size: 391.40 MB

Magnet: Magnet Link

Seeds: 0

Leechers: 0

Stream: Watch Online @ Movie4u

Last Updated: 2014-09-06 13:44:47 (Update Now)

Torrent added: 2009-08-23 16:23:46



VPN For Torrents

Torrent Files List


Tracked by moviesb4time.biz.txt (Size: 391.40 MB) (Files: 4)

 Tracked by moviesb4time.biz.txt

1.35 KB

 Torrent downloaded from Demonoid.com.txt

0.05 KB

 517JQZFW3YL._SL500_AA240_.jpg

20.19 KB

 DVDVolume

  TITLE02.avi

391.38 MB
 

Announce URL:

Torrent description

PRE-SCHOOL

A collection of 100 favourite rhymes and songs about animals, featuring the best-loved and most well-known. Each song or rhyme is accompanied by illustrations designed to appeal to children. Includes: Three Blind Mice, Little Robin Red Breast, Goosey Goosey Gander, Once I Caught A Fish Alive, Two Little Dickie Birds, Old MacDonald Had A Farm, Little Bo Peep, Dapple Grey, The Ants Go Marching and Five Little Monkeys.


General
Complete name : C:\Users\joker\Documents\100 FAVOURITE ANIMAL SONGS&RHYMES[DVDRIP][ENG]-KIDZCORNER&J.T.R\DVDVolume\TITLE02.avi
Format : AVI
Format/Info : Audio Video Interleave
File size : 391 MiB
Duration : 40mn 50s
Overall bit rate : 1 340 Kbps

Video
Format : MPEG-4 Visual
Format profile : [email protected]
Format settings, BVOP : No
Format settings, QPel : No
Format settings, GMC : No warppoints
Format settings, Matrix : Default
Codec ID : XVID
Codec ID/Hint : XviD
Duration : 40mn 50s
Bit rate : 1 200 Kbps
Width : 640 pixels
Height : 480 pixels
Display aspect ratio : 4/3
Frame rate : 25.000 fps
Resolution : 24 bits
Colorimetry : 4:2:0
Scan type : Progressive
Bits/(Pixel*Frame) : 0.156
Stream size : 350 MiB (90%)
Writing library : Magic0432

Audio
Format : MPEG Audio
Format version : Version 1
Format profile : Layer 3
Codec ID : 55
Codec ID/Hint : MP3
Duration : 40mn 50s
Bit rate mode : Constant
Bit rate : 128 Kbps
Channel(s) : 2 channels
Sampling rate : 44.1 KHz
Resolution : 16 bits
Stream size : 37.4 MiB (10%)
Alignment : Aligned on interleaves
Interleave, duration : 26 ms (0.65 video frame)


related torrents

Torrent name

health leech seeds Size
 


comments (0)

Main Menu