TV - Other

100 FAVOURITE ACTION SONGS&RHYMES [DVDRIP][ENG] KIDZCORNER&J T R

  • Download 5x Faster
  • Download torrent
  • Direct Download
  • Rate this torrent +  |  -
100 FAVOURITE ACTION SONGS&RHYMES [DVDRIP][ENG] KIDZCORNER&J T R

Anonymous and Direct Download 300GB+ free


Torrent info

Name:100 FAVOURITE ACTION SONGS&RHYMES [DVDRIP][ENG] KIDZCORNER&J T R

Total Size: 303.19 MB

Magnet: Magnet Link

Seeds: 0

Leechers: 0

Stream: Watch Online @ Movie4u

Last Updated: 2014-09-06 13:45:23 (Update Now)

Torrent added: 2009-08-23 16:23:41




Torrent Files List


Tracked by moviesb4time.biz.txt (Size: 303.19 MB) (Files: 5)

 Tracked by moviesb4time.biz.txt

1.35 KB

 Torrent downloaded from Demonoid.com-1.txt

0.05 KB

 669981_DV_L_B.JPG

32.22 KB

 669981_DV_L_F.JPG

32.00 KB

 100_FAV_DVD

  100 favs action-ryhmes.avi

303.13 MB
 

Announce URL:

Torrent description

pre-school

100 Favourite Action Songs & Rhymes features the best-loved and most traditional action songs and rhymes. Every song and rhyme is accompanied by beautiful animation and some real live footage, which will enthrall and delight young children time and time again.

Includes: The Wheels
on the Bus, If You're Happy and You Know It, A Sailor Went to Sea Sea Sea and many many more!

General
Complete name : C:\Users\joker\Documents\100 FAVOURITE ACTION SONGS&RHYMES-[DVDRIP][ENG]-KIDZCORNER&J.T.R\100_FAV_DVD\100 favs action-ryhmes.avi
Format : AVI
Format/Info : Audio Video Interleave
File size : 303 MiB
Duration : 36mn 19s
Overall bit rate : 1 167 Kbps

Video
Format : MPEG-4 Visual
Format profile : [email protected]
Format settings, BVOP : No
Format settings, QPel : No
Format settings, GMC : No warppoints
Format settings, Matrix : Default
Codec ID : XVID
Codec ID/Hint : XviD
Duration : 36mn 19s
Bit rate : 1 026 Kbps
Width : 640 pixels
Height : 360 pixels
Display aspect ratio : 16/9
Frame rate : 25.000 fps
Resolution : 24 bits
Colorimetry : 4:2:0
Scan type : Progressive
Bits/(Pixel*Frame) : 0.178
Stream size : 267 MiB (88%)
Writing library : Magic0432

Audio
Format : MPEG Audio
Format version : Version 1
Format profile : Layer 3
Codec ID : 55
Codec ID/Hint : MP3
Duration : 36mn 19s
Bit rate mode : Constant
Bit rate : 128 Kbps
Channel(s) : 2 channels
Sampling rate : 44.1 KHz
Resolution : 16 bits
Stream size : 33.3 MiB (11%)
Alignment : Aligned on interleaves
Interleave, duration : 26 ms (0.65 video frame)
Writing library : LAME3.97

related torrents

Torrent name

health leech seeds Size
 


comments (0)

Main Menu