Other

[EAC FLAC CUE] Prince Sign 'O' The Times [RollingStones # 93]

  • Download 5x Faster
  • Download torrent
  • Direct Download
  • Rate this torrent +  |  -
[EAC FLAC CUE] Prince Sign 'O' The Times [RollingStones # 93]

Free and Direct Download with Usenet 300GB+ free


Torrent info

Name:[EAC FLAC CUE] Prince Sign 'O' The Times [RollingStones # 93]

Total Size: 451.02 MB

Magnet: Magnet Link

Seeds: 0

Leechers: 0

Stream: Watch Online @ Movie4u

Last Updated: 2016-08-08 12:20:18 (Update Now)

Torrent added: 2009-08-23 16:13:32




Torrent Files List


Sign 'O' The Times (Disc 2).log (Size: 451.02 MB) (Files: 9)

 Sign 'O' The Times (Disc 2).log

2.46 KB

 Sign 'O' The Times (Disc 1).log

2.65 KB

 Prince - Sign 'O' The Times (Disc 2).flac

223.04 MB

 Prince - Sign 'O' The Times (Disc 2).cue

1.01 KB

 Prince - Sign 'O' The Times (Disc 1).flac

225.01 MB

 Prince - Sign 'O' The Times (Disc 1).cue

1.18 KB

 back cd 2.jpg

1.05 MB

 front.jpg

864.97 KB

 back cd 1.jpg

1.06 MB
 

tracker

leech seeds
 

Torrent description

Sign o' the Times is a studio album by soul and funk musician Prince, released March 31, 1987 on the Paisley Park record label. The album is the follow up to Parade, and Prince's first "solo" album following his departure from The Revolution; the symbol between the quotes is a peace sign. The double album was a synthesis of three projects from 1986, including some work with The Revolution. The bulk of the tracks originate from the final Revolution project known as Dream Factory and a later solo project called Camille. These projects, along with some other songs merged into a 22-track, 3-LP opus called Crystal Ball. Prince's record company, Warner Bros. Records, balked at the idea of a 3-LP album, considering the lukewarm performance of Parade, and Prince's second movie, Under the Cherry Moon, and forced Prince to trim the album down. The result was Sign o' the Times, which quickly became widely regarded as Prince's magnum opus amongst fans and critics alike. The album yielded three top-ten hits, the most from a Prince album since 1984's Purple Rain.
from wikipedia



Exact Audio Copy V0.99 prebeta 3 from 28. July 2007

EAC extraction logfile from 8. December 2007, 15:47

Prince / Sign 'O' The Times (Disc 1)

Used drive : _NEC DVD+-RW ND-6500A Adapter: 1 ID: 0

Read mode : Secure
Utilize accurate stream : Yes
Defeat audio cache : Yes
Make use of C2 pointers : No

Read offset correction : 48
Overread into Lead-In and Lead-Out : No
Fill up missing offset samples with silence : Yes
Delete leading and trailing silent blocks : No
Null samples used in CRC calculations : Yes
Used interface : Installed external ASPI interface

Used output format : User Defined Encoder
Selected bitrate : 768 kBit/s
Quality : High
Add ID3 tag : No
Command line compressor : C:\Programmi\Exact Audio Copy\FLAC\FLAC.EXE
Additional command line options : -8 -V -T "ARTIST=%a" -T "TITLE=%t" -T "ALBUM=%g" -T "DATE=%y" -T "TRACKNUMBER=%n" -T "GENRE=%m" -T "COMMENT=%e" %s -o %d


TOC of the extracted CD

Track | Start | Length | Start sector | End sector
---------------------------------------------------------
1 | 0:00.33 | 4:56.47 | 33 | 22279
2 | 4:57.05 | 5:05.18 | 22280 | 45172
3 | 10:02.23 | 4:42.07 | 45173 | 66329
4 | 14:44.30 | 4:01.70 | 66330 | 84474
5 | 18:46.25 | 5:09.63 | 84475 | 107712
6 | 23:56.13 | 2:50.37 | 107713 | 120499
7 | 26:46.50 | 4:22.25 | 120500 | 140174
8 | 31:09.00 | 5:39.03 | 140175 | 165602
9 | 36:48.03 | 3:30.37 | 165603 | 181389


Range status and errors

Selected range

Filename C:\Documents and Settings\ROBERTO\Desktop\Cartella releases\Prince - Sign 'O' The Times (Disc 1).wav

Peak level 85.4 %
Range quality 100.0 %
Test CRC 46263400
Copy CRC 46263400
Copy OK

No errors occurred


AccurateRip summary

Track 1 accurately ripped (confidence 13) [738E52CB]
Track 2 accurately ripped (confidence 12) [6DC2406C]
Track 3 accurately ripped (confidence 12) [A9EC2DF9]
Track 4 accurately ripped (confidence 12) [914CC761]
Track 5 accurately ripped (confidence 12) [6124C77A]
Track 6 accurately ripped (confidence 12) [004AC73C]
Track 7 accurately ripped (confidence 12) [5314E753]
Track 8 accurately ripped (confidence 12) [55ECFE65]
Track 9 accurately ripped (confidence 11) [E10CB82D]

All tracks accurately ripped

End of status report


Exact Audio Copy V0.99 prebeta 3 from 28. July 2007

EAC extraction logfile from 8. December 2007, 16:23

Prince / Sign 'O' The Times (Disc 2)

Used drive : _NEC DVD+-RW ND-6500A Adapter: 1 ID: 0

Read mode : Secure
Utilize accurate stream : Yes
Defeat audio cache : Yes
Make use of C2 pointers : No

Read offset correction : 48
Overread into Lead-In and Lead-Out : No
Fill up missing offset samples with silence : Yes
Delete leading and trailing silent blocks : No
Null samples used in CRC calculations : Yes
Used interface : Installed external ASPI interface

Used output format : User Defined Encoder
Selected bitrate : 768 kBit/s
Quality : High
Add ID3 tag : No
Command line compressor : C:\Programmi\Exact Audio Copy\FLAC\FLAC.EXE
Additional command line options : -8 -V -T "ARTIST=%a" -T "TITLE=%t" -T "ALBUM=%g" -T "DATE=%y" -T "TRACKNUMBER=%n" -T "GENRE=%m" -T "COMMENT=%e" %s -o %d


TOC of the extracted CD

Track | Start | Length | Start sector | End sector
---------------------------------------------------------
1 | 0:00.33 | 3:47.52 | 33 | 17109
2 | 3:48.10 | 5:01.55 | 17110 | 39739
3 | 8:49.65 | 4:01.10 | 39740 | 57824
4 | 12:51.00 | 6:29.18 | 57825 | 87017
5 | 19:20.18 | 4:48.65 | 87018 | 108682
6 | 24:09.08 | 9:01.55 | 108683 | 149312
7 | 33:10.63 | 6:30.35 | 149313 | 178597


Range status and errors

Selected range

Filename C:\Documents and Settings\ROBERTO\Desktop\Cartella releases\Prince -Sign 'O' The Times [RollingStones # 93]\Prince - Sign 'O' The Times (Disc 2).wav

Peak level 70.8 %
Range quality 100.0 %
Test CRC 2B14FCC1
Copy CRC 2B14FCC1
Copy OK

No errors occurred


AccurateRip summary

Track 1 accurately ripped (confidence 37) [59B5ED8E]
Track 2 accurately ripped (confidence 35) [0265A5F6]
Track 3 accurately ripped (confidence 34) [344A1FFA]
Track 4 accurately ripped (confidence 36) [CE01618D]
Track 5 accurately ripped (confidence 35) [A18A3627]
Track 6 accurately ripped (confidence 35) [A21867E5]
Track 7 accurately ripped (confidence 34) [A794C6E7]

All tracks accurately ripped

End of status report

related torrents

Torrent name

health leech seeds Size
 

comments (0)

Main Menu