Other

James Brown Godfather of Soul [EAC FLAC] [RePoPo]

  • Download 5x Faster
  • Download torrent
  • Direct Download
  • Rate this torrent +  |  -
James Brown Godfather of Soul [EAC FLAC] [RePoPo]

Free and Direct Download with Usenet 300GB+ free


Torrent info

Name:James Brown Godfather of Soul [EAC FLAC] [RePoPo]

Total Size: 233.78 MB

Magnet: Magnet Link

Seeds: 0

Leechers: 0

Stream: Watch Online @ Movie4u

Last Updated: 2010-12-04 03:03:07 (Update Now)

Torrent added: 2009-08-23 16:09:11




Torrent Files List


Torrent downloaded from Demonoid.com.txt (Size: 233.78 MB) (Files: 24)

 Torrent downloaded from Demonoid.com.txt

0.05 KB

 Godfather Of Soul Tracklist.txt

0.59 KB

 James Brown - Godfather Of Soul.m3u

1.25 KB

 Godfather Of Soul.cue

2.64 KB

 Godfather Of Soul.accurip

3.34 KB

 James Brown - Godfather Of Soul.log

6.27 KB

 James Brown - Godfather of Soul [EAC-FLAC] [RePoPo].txt

6.41 KB

 12.- James Brown - Good Good Lovin'.flac

10.53 MB

 01.- James Brown - It's A Man's Man's Man's World.flac

10.73 MB

 10.- James Brown - Mona Lisa.flac

10.84 MB

 02.- James Brown - Papa's Got A Brand New Bag.flac

11.17 MB

 05.- James Brown - Signed, Sealed And Delivered.flac

12.56 MB

 09.- James Brown - Spinning Wheel.flac

12.97 MB

 11.- James Brown - This Old Heart.flac

13.37 MB

 06.- James Brown - Please Please Please.flac

14.14 MB

 13.- James Brown - Bewildered.flac

15.43 MB

 03.- James Brown - Nature Boy.flac

15.81 MB

 04.- James Brown - Think.flac

18.38 MB

 08.- James Brown - (Call Me) Super Bad.flac

24.05 MB

 14.- James Brown - (Get Up I Feel Like Being A) Sex Machine.flac

28.58 MB

 07.- James Brown - How Do You Stop.flac

33.84 MB

 COVERS

  Front.jpg

234.82 KB

  CD.jpg

154.81 KB

  Back.jpg

0.99 MB
 

Announce URL:

Torrent description

*******************************************************************************
James Brown - Godfather of Soul
*******************************************************************************


CD: James Brown - Godfather Of Soul

01. It's A Man's Man's Man's World [0:02:48.45]
02. Papa's Got A Brand New Bag [0:02:07.10]
03. Nature Boy [0:02:44.07]
04. Think [0:02:48.08]
05. Signed, Sealed And Delivered [0:02:44.65]
06. Please Please Please [0:02:46.30]
07. How Do You Stop [0:05:26.65]
08. (Call Me) Super Bad [0:04:16.67]
09. Spinning Wheel [0:02:28.25]
10. Mona Lisa [0:01:59.48]
11. This Old Heart [0:02:12.67]
12. Good Good Lovin' [0:02:16.23]
13. Bewildered [0:02:26.30]
14. (Get Up I Feel Like Being A) Sex Machine [0:05:15.65]


-------------------------------------------------------------------------------
EAC LOG EXTRACT
-------------------------------------------------------------------------------

Exact Audio Copy V0.99 prebeta 4 from 23. January 2008

EAC extraction logfile from 27. July 2009, 11:35

James Brown / Godfather Of Soul

Used drive : HL-DT-STDVD-RAM GSA-H55N Adapter: 0 ID: 0

Read mode : Secure
Utilize accurate stream : Yes
Defeat audio cache : Yes
Make use of C2 pointers : No

Read offset correction : 102
Overread into Lead-In and Lead-Out : No
Fill up missing offset samples with silence : Yes
Delete leading and trailing silent blocks : No
Null samples used in CRC calculations : Yes
Used interface : Installed external ASPI interface
Gap handling : Appended to previous track

Used output format : User Defined Encoder
Selected bitrate : 1024 kBit/s
Quality : High
Add ID3 tag : No
Command line compressor : F:Archivos de programaExact Audio
CopyFLACFLAC.EXE
Additional command line options : -8 -V -T "ARTIST=%a" -T "TITLE=%t" -T
"ALBUM=%g" -T "DATE=%y" -T "TRACKNUMBER=%n" -T "GENRE=%m" -T "COMMENT=%e" %s -o
%d


-------------------------------------------------------------------------------
ACCURIP REPORT
-------------------------------------------------------------------------------

[Verification date: 27/07/2009 11:39:54]
[Disc ID: 001518d5-00e3102f-c809ee0e]
Pregap length 00:00:33.
Track [ CRC ] Status
01 [fd5089b6] (04/23) Accurately ripped as in pressing(s) #3
02 [314c6485] (04/23) Accurately ripped as in pressing(s) #3
03 [3d0e8224] (04/24) Accurately ripped as in pressing(s) #3
04 [1400f032] (04/24) Accurately ripped as in pressing(s) #3
05 [7fc922ee] (04/24) Accurately ripped as in pressing(s) #3
06 [6099550f] (04/24) Accurately ripped as in pressing(s) #3
07 [aad126da] (04/24) Accurately ripped as in pressing(s) #3
08 [b0ab3d4a] (04/24) Accurately ripped as in pressing(s) #3
09 [5997b7e8] (04/24) Accurately ripped as in pressing(s) #3
10 [808a69d7] (04/24) Accurately ripped as in pressing(s) #3
11 [597078a4] (04/24) Accurately ripped as in pressing(s) #3
12 [2b463a53] (04/24) Accurately ripped as in pressing(s) #3
13 [7a633ac2] (04/24) Accurately ripped as in pressing(s) #3
14 [1347a277] (04/24) Accurately ripped as in pressing(s) #3
Offsetted by 679:
01 [1597f3e8] (13/23) Accurately ripped as in pressing(s) #1
02 [7fe3827f] (13/23) Accurately ripped as in pressing(s) #1
03 [1db8addf] (14/24) Accurately ripped as in pressing(s) #1
04 [92d09a04] (14/24) Accurately ripped as in pressing(s) #1
05 [900113fc] (14/24) Accurately ripped as in pressing(s) #1
06 [206c432a] (14/24) Accurately ripped as in pressing(s) #1
07 [abbf4df9] (14/24) Accurately ripped as in pressing(s) #1
08 [66d2aba4] (14/24) Accurately ripped as in pressing(s) #1
09 [c0c0e24d] (14/24) Accurately ripped as in pressing(s) #1
10 [11bb69e4] (14/24) Accurately ripped as in pressing(s) #1
11 [3548da07] (14/24) Accurately ripped as in pressing(s) #1
12 [2d013ce0] (14/24) Accurately ripped as in pressing(s) #1
13 [19498830] (14/24) Accurately ripped as in pressing(s) #1
14 [47e4d24b] (14/24) Accurately ripped as in pressing(s) #1
Offsetted by 2115:
01 [3c1f26b0] (06/23) Accurately ripped as in pressing(s) #2
02 [875eac67] (06/23) Accurately ripped as in pressing(s) #2
03 [f6f95bcb] (06/24) Accurately ripped as in pressing(s) #2
04 [b843eb4c] (06/24) Accurately ripped as in pressing(s) #2
05 [8c398e34] (06/24) Accurately ripped as in pressing(s) #2
06 [5b9eda96] (06/24) Accurately ripped as in pressing(s) #2
07 [e15dfd75] (06/24) Accurately ripped as in pressing(s) #2
08 [8f13f70c] (06/24) Accurately ripped as in pressing(s) #2
09 [bdfd2ce1] (06/24) Accurately ripped as in pressing(s) #2
10 [a8b49318] (06/24) Accurately ripped as in pressing(s) #2
11 [4fbfe693] (06/24) Accurately ripped as in pressing(s) #2
12 [8882f014] (06/24) Accurately ripped as in pressing(s) #2
13 [777754d4] (06/24) Accurately ripped as in pressing(s) #2
14 [ec5a669f] (06/24) Accurately ripped as in pressing(s) #2

-------------------------------------------------------------------------------
IMPORTANT: PLEASE READ (A REQUEST)
-------------------------------------------------------------------------------

It's usual to post comments only to complain about a torrent which doesn't work
in your configuration. It's normal, after a few hours/days downloading and
expecting a release, to feel deceived if it doesn't work properly, and
expressing this is legitimate.

I've often found one comment (negative) on a movie/CD downloaded by 2000+
people, and since that single negative feedback, people simply stop downloading
and therefore, sharing. But a few times it was due not to the torrent itself,
but to some issues on the downloader side (not updated codecs, misused
tools...), and that's unfair for the person who took the time to share it for
free.

IF YOU FIND THIS RELEASE DESERVES TO BE RECOMMENDED TO OTHERS, HELP BY DROPPING
A LINE AFTER YOU'VE CHECKED IT. This way, You'll help in keeping the torrent
alive, almost as much as keeping it in your HDD until a 1:1 ratio is
reached.

Thanks

-------------------------------------------------------------------------------
-------------------------------------------------------------------------------

related torrents

Torrent name

health leech seeds Size
 

comments (0)

Main Menu