NCIS

Navy CIS S05 COMPLETE GERMAN DL DVDRip WS XviD TvR [mnvv2 info]

  • Download 5x Faster
  • Download torrent
  • Direct Download
  • Rate this torrent +  |  -
Navy CIS S05 COMPLETE GERMAN DL DVDRip WS XviD TvR [mnvv2 info]

Anonymous and Free Direct Download 300GB+


Torrent info

Name:Navy CIS S05 COMPLETE GERMAN DL DVDRip WS XviD TvR [mnvv2 info]

Total Size: 7.22 GB

Magnet: Magnet Link

Seeds: 0

Leechers: 0

Stream: Watch Online @ Movie4u

Last Updated: 2015-09-30 06:46:54 (Update Now)

Torrent added: 2009-08-23 15:38:33



VPN For Torrents

Torrent Files List


tvr-NCIS-s05e1819-dvdrip.avi (Size: 7.22 GB) (Files: 19)

 tvr-NCIS-s05e1819-dvdrip.avi

757.23 MB

 tvr-ncis-s05e17-dvdrip.avi

378.98 MB

 tvr-ncis-s05e16-dvdrp.avi

378.83 MB

 tvr-ncis-s05e15-dvdrip.avi

379.08 MB

 tvr-NCIS-s05e14-dvdrip.avi

378.86 MB

 tvr-ncis-s05e13-dvdrip.avi

378.62 MB

 tvr-ncis-s05e12-dvdrip.avi

379.13 MB

 tvr-NCIS-s05e11-hdtv.avi

397.12 MB

 tvr-NCIS-s05e10-hdtv.avi

397.89 MB

 tvr-NCIS-s05e09-hdtv.avi

397.96 MB

 tvr-NCIS-s05e08-hdtv.avi

398.01 MB

 tvr-NCIS-s05e07-hdtv.avi

395.21 MB

 tvr-NCIS-s05e06-hdtv.avi

395.12 MB

 tvr-NCIS-s05e05-hdtv.avi

395.99 MB

 tvr-ncis-s05e04-hdtv.avi

395.97 MB

 tvr-NCIS-s05e01-hdtv.avi

394.21 MB

 tvr-NCIS-s05e03-hdtv.avi

395.78 MB

 tvr-NCIS-s05.nfo

1.82 KB

 tvr-NCIS--s05e02-hdtv.avi

395.14 MB
 

tracker

leech seeds
 

Torrent description

Staffel 5 Deutsch-Englisch TVR


General
Complete name : Navy CIS
Format : AVI
Format/Info : Audio Video Interleave
File size : Variable
Duration : Variable
Overall bit rate : 1 347 Kbps
Writing application : VirtualDubMod 1.5.10.2 (build 2540/release)
Writing library : VirtualDubMod build 2540/release

Video
Format : MPEG-4 Visual
Format profile : Streaming [email protected]
Format settings, BVOP : Yes
Format settings, QPel : No
Format settings, GMC : No warppoints
Format settings, Matrix : Default
Codec ID : XVID
Codec ID/Hint : XviD
Duration : Variable
Bit rate : 1 066 Kbps
Width : 640 pixels
Height : 352 pixels
Display aspect ratio : 16/9
Frame rate : 25.000 fps
Resolution : 24 bits
Colorimetry : 4:2:0
Scan type : Progressive
Bits/(Pixel*Frame) : 0.189
Stream size : 312 MiB (79)
Writing library : XviD 1.1.2 (UTC 2006-11-01)

Audio #1
Format : MPEG Audio
Format version : Version 1
Format profile : Layer 3
Codec ID : 55
Codec ID/Hint : MP3
Duration : Variable
Bit rate mode : Variable
Bit rate : 131 Kbps
Nominal bit rate : 128 Kbps
Channel(s) : 2 channels
Sampling rate : 48.0 KHz
Resolution : 16 bits
Stream size : 38.4 MiB (10)
Alignment : Aligned on interleaves
Interleave, duration : 24 ms (0.60 video frame)
Interleave, preload duration : 491 ms
Writing library : LAME3.90.
Encoding settings : ABR

Audio #2
Format : MPEG Audio
Format version : Version 1
Format profile : Layer 3
Codec ID : 55
Codec ID/Hint : MP3
Duration : Variable
Bit rate mode : Variable
Bit rate : 129 Kbps
Nominal bit rate : 128 Kbps
Channel(s) : 2 channels
Sampling rate : 48.0 KHz
Resolution : 16 bits
Stream size : 37.7 MiB (10)
Alignment : Aligned on interleaves
Interleave, duration : 24 ms (0.60 video frame)
Interleave, preload duration : 526 ms
Writing library : LAME3.90.
Encoding settings : ABR

related torrents

Torrent name

health leech seeds Size
 


comments (0)

Main Menu