NCIS

Navy CIS NCIS S01 S05 COMPLETE GERMAN DL DVDRip WS XviD TvR

  • Download 5x Faster
  • Download torrent
  • Direct Download
  • Rate this torrent +  |  -
Navy CIS NCIS S01 S05 COMPLETE GERMAN DL DVDRip WS XviD TvR

Free and Direct Download with Usenet.nl 300GB+ free


Torrent info

Name:Navy CIS NCIS S01 S05 COMPLETE GERMAN DL DVDRip WS XviD TvR

Total Size: 42.65 GB

Magnet: Magnet Link

Seeds: 0

Leechers: 0

Stream: Watch Online @ Movie4u

Last Updated: 2015-09-30 06:46:25 (Update Now)

Torrent added: 2009-08-23 15:38:29





Torrent Files List


Navy.CIS.S05.COMPLETE.GERMAN.DL.DVDRip.WS.XviD-TvR (Size: 42.65 GB) (Files: 131)

 Navy.CIS.S05.COMPLETE.GERMAN.DL.DVDRip.WS.XviD-TvR

  NCIS.S05E16.Mann.ohne.Gesicht.German.Dubbed.DVDRiP.DL.WS.XviD-TvR

   tvr-ncis-s05e16-dvdrp.avi

378.83 MB

   tvr-ncis-s05e16-dvdrip.nfo

5.40 KB

  NCIS.S05E14.Lang.lebe.die.Koenigin.German.Dubbed.DVDRiP.DL.WS.XviD-TvR

   tvr-ncis-s05e14-dvdrip.nfo

5.41 KB

   tvr-NCIS-s05e14-dvdrip.avi

378.86 MB

  Navy.CIS.S05E1819.GERMAN.DL.DUBBED.DVDRIP.WS.XviD-TvR

   tvr-ncis.s05e1819-dvdrip.avi

757.23 MB

   tvr-NCIS-s05e1819-dvdrip.nfo

5.58 KB

  Navy.CIS.S05E17.Falsche.Baustelle.GERMAN.DL.DUBBED.DVDRIP.WS.XviD-TvR

   tvr-NCIS-s05e17-dvdrip.nfo

5.35 KB

   tvr-ncis-s05e17-dvdrip.avi

378.98 MB

  Navy.CIS.S05E15.Gruene.Zone.German.Dubbed.DVDRiP.DL.WS.XviD-TvR

   tvr-ncis-s05e15-dvdrip.nfo

5.40 KB

   tvr-ncis-s05e15-dvdrip.avi

379.08 MB

  Navy.CIS.S05E13.Hundeleben.GERMAN.DL.DUBBED.DVDRIP.WS.XviD-TvR

   tvr-NCIS-s05e13-dvdrip.nfo

5.35 KB

   tvr-ncis-s05e13-dvdrip.avi

378.62 MB

  Navy.CIS.S05E12.Auf.der.Lauer.German.Dubbed.DL.WS.XviD-TvR

   tvr-ncis-s05e12-dvdrip.nfo

5.40 KB

   tvr-ncis-s05e12-dvdrip.avi

379.13 MB

  Navy.CIS.S05E11.Beweise.GERMAN.DL.DUBBED.HDTV.WS.XviD-TvR

   tvr-NCIS-s05e11-hdtv.nfo

5.35 KB

   tvr-NCIS-s05e11-hdtv.avi

397.12 MB

  Navy.CIS.S05E10.Wie.ein.wilder.Stier.GERMAN.DL.DUBBED.HDTV.WS.XviD-TvR

   tvr-NCIS-s05e10-hdtv.nfo

5.36 KB

   tvr-NCIS-s05e10-hdtv.avi

397.89 MB

  Navy.CIS.S05E09.Gesucht.und.gefunden.GERMAN.DL.DUBBED.HDTV.WS.XviD-TvR

   tvr-NCIS-s05e09-hdtv.nfo

5.36 KB

   tvr-NCIS-s05e09-hdtv.avi

397.96 MB

  Navy.CIS.S05E08.Mord.im.Taxi.GERMAN.DL.DUBBED.HDTV.WS.XviD-TvR

   tvr-NCIS-s05e08-hdtv.nfo

5.35 KB

   tvr-NCIS-s05e08-hdtv.avi

398.01 MB

  Navy.CIS.S05E07.Alte.Wunden.GERMAN.DUBBED.DL.HDTV.WS.XviD-TvR

   tvr-NCIS-s05e07-hdtv.nfo

5.35 KB

   tvr-NCIS-s05e07-hdtv.avi

395.21 MB

  Navy.CIS.S05E06.Das.Geisterschiff.GERMAN.DL.DUBBED.HDTV.WS.XviD-TvR

   tvr-NCIS-s05e06-hdtv.nfo

5.36 KB

   tvr-NCIS-s05e06-hdtv.avi

395.12 MB

  Navy.CIS.S05E05.Der.Mann.auf.dem.Dach.GERMAN.DL.DUBBED.HDTV.WS.XviD-TvR

   tvr-NCIS-s05e05-hdtv.nfo

5.36 KB

   tvr-NCIS-s05e05-hdtv.avi

395.99 MB

  Navy.CIS.S05E04.Eine.falsche.Identitaet.GERMAN.DL.DUBBED.HDTV.WS.XviD-TvR

   tvr-NCIS-s05e04-hdtv.nfo

5.37 KB

   tvr-ncis-s05e04-hdtv.avi

395.97 MB

  Navy.CIS.S05E03.Dreieck.GERMAN.DL.DUBBED.HDTV.WS.XviD-TvR

   tvr-NCIS-s05e03-hdtv.nfo

5.35 KB

   tvr-NCIS-s05e03-hdtv.avi

395.78 MB

  Navy.CIS.S05E02.Familiensache.GERMAN.DL.DUBBED.HDTV.WS.XviD-TvR

   tvr-NCIS-s05e02-hdtv.nfo

5.36 KB

   tvr-ncis-s05e02-hdtv.avi

395.14 MB

  Navy.CIS.S05E01.Meine.Freundin.ihr.Vater.und.ich.GERMAN.DL.DUBBED.HDTV.WS.XviD-TvR

   tvr-NCIS-s05e01-hdtv.nfo

5.37 KB

   tvr-NCIS-s05e01-hdtv.avi

394.21 MB

 Navy.CIS.S04.COMPLETE.GERMAN.DL.DVDRip.WS.XviD-TvR

  tvr-NCIS-s04e24-dvdrip.avi

392.79 MB

  tvr-NCIS-s04e23-dvdrip.avi

396.06 MB

  tvr-NCIS-s04e22-dvdrip.avi

391.42 MB

  tvr-NCIS-s04e21-dvdrip.avi

392.31 MB

  tvr-NCIS-s04e20-dvdrip.avi

396.03 MB

  tvr-NCIS-s04e19-dvdrip.avi

396.26 MB

  tvr-NCIS-s04e18-dvdrip.avi

395.82 MB

  tvr-NCIS-s04e17-dvdrip.avi

396.00 MB

  tvr-NCIS-s04e16-dvdrip.avi

396.68 MB

  tvr-NCIS-s04e15-dvdrip.avi

396.36 MB

  tvr-NCIS-s04e14-dvdrip.avi

396.11 MB

  tvr-NCIS-s04e13-dvdrip.avi

396.06 MB

  tvr-NCIS-s04e12-dvdrip.avi

396.14 MB

  tvr-NCIS-s04e11-dvdrip.avi

395.34 MB

  tvr-NCIS-s04e10-dvdrip.avi

395.95 MB

  tvr-NCIS-s04e09-dvdrip.avi

396.27 MB

  tvr-NCIS-s04e08-dvdrip.avi

395.03 MB

  tvr-NCIS-s04e07-dvdrip.avi

393.35 MB

  tvr-NCIS-s04e06-dvdrip.avi

395.80 MB

  tvr-NCIS-s04e05-dvdrip.avi

396.07 MB

  tvr-NCIS-s04e04-dvdrip.avi

395.63 MB

  tvr-NCIS-s04e03-dvdrip.avi

395.91 MB

  tvr-NCIS-s04e02-dvdrip.avi

394.96 MB

  tvr-NCIS-s04e01-dvdrip.avi

395.70 MB

  tvr-NCIS-s04-dvdrip.nfo

5.35 KB

 Navy.CIS.S03.COMPLETE.GERMAN.DL.DVDRip.WS.XviD-TvR

  tvr-ncis-s03e24.avi

349.97 MB

  tvr-ncis-s03e23.avi

349.99 MB

  tvr-ncis-s03e22.avi

350.00 MB

  tvr-ncis-s03e21.avi

350.00 MB

  tvr-ncis-s03e20.avi

350.01 MB

  tvr-ncis-s03e19.avi

350.00 MB

  tvr-ncis-s03e18.avi

350.00 MB

  tvr-ncis-s03e17.avi

350.01 MB

  tvr-ncis-s03e16.avi

349.72 MB

  tvr-ncis-s03e15.avi

349.98 MB

  tvr-ncis-s03e14.avi

350.00 MB

  tvr-ncis-s03e13.avi

350.42 MB

  tvr-ncis-s03e12.avi

350.01 MB

  tvr-ncis-s03e11.avi

350.00 MB

  tvr-ncis-s03e10.avi

349.99 MB

  tvr-ncis-s03e09.avi

350.00 MB

  tvr-ncis-s03e08.avi

350.04 MB

  tvr-ncis-s03e07.avi

350.04 MB

  tvr-ncis-s03e06.avi

350.22 MB

  tvr-ncis-s03e05.avi

350.06 MB

  tvr-ncis-s03e04.avi

350.06 MB

  tvr-ncis-s03e03.avi

350.30 MB

  tvr-ncis-s03e02.avi

350.25 MB

  tvr-ncis-s03e01.avi

350.19 MB

 Navy.CIS.S02.COMPLETE.GERMAN.DL.DVDRip.WS.XviD-TvR

  Navy.CIS.S02E23.Die.Rueckkehr.DL.DVDRiP.XviD-TvR.avi

400.00 MB

  Navy.CIS.S02E22.Todeskuss.DL.DVDRiP.XviD-TvR.avi

400.00 MB

  Navy.CIS.S02E21.Mit.allen.Ehren.DL.DVDRiP.XviD-TvR.avi

399.99 MB

  Navy.CIS.S02E20.Die.rote.Zelle.DL.DVDRiP.XviD-TvR.avi

399.99 MB

  Navy.CIS.S02E19.Stimmen.DL.DVDRiP.XviD-TvR.avi

400.00 MB

  Navy.CIS.S02E18.Bikini.Girl.DL.DVDRiP.XviD-TvR.avi

400.00 MB

  Navy.CIS.S02E17.Blau.wie.Kobalt.DL.DVDRiP.XviD-TvR.avi

400.01 MB

  Navy.CIS.S02E16.Wege.zum.Ruhm.DL.DVDRiP.XviD-TvR.avi

400.01 MB

  Navy.CIS.S02E15.Maenner.und.Frauen.DL.DVDRiP.XviD-TvR.avi

399.72 MB

  Navy.CIS.S02E14.Die.Zeugin.DL.DVDRiP.XviD-TvR.avi

400.00 MB

  Navy.CIS.S02E13.Blutiges.Puzzle.DL.DVDRiP.XviD-TvR.avi

400.01 MB

  Navy.CIS.S02E12.Doppeltes.Spiel.DL.DVDRiP.XviD-TvR.avi

400.02 MB

  Navy.CIS.S02E11.Ein.Mann.fuer.unloesbare.Faelle.DL.DVDRiP.XviD-TvR.avi

400.01 MB

  Navy.CIS.S02E10.Flucht.in.Ketten.DL.DVDRiP.XviD-TvR.avi

399.99 MB

  Navy.CIS.S02E09.Leere.Augen.DL.DVDRiP.XviD-TvR.avi

400.01 MB

  Navy.CIS.S02E08.Herzenssachen.DL.DVDRiP.XviD-TvR.avi

400.00 MB

  Navy.CIS.S02E07.Der.Held.von.Iwo.Jima.DL.DVDRiP.XviD-TvR.avi

400.00 MB

  Navy.CIS.S02E06.Schatten.der.Angst.DL.DVDRiP.XviD-TvR.avi

400.01 MB

  Navy.CIS.S02E05.Der.Maulwurf.DL.DVDRiP.XviD-TvR.avi

400.01 MB

  Navy.CIS.S02E03.Auge.um.Auge.DL.DVDRiP.XviD-TvR.avi

400.00 MB

  Navy.CIS.S02E04.Neptuns.Zeichen.DL.DVDRiP.XviD-TvR.avi

399.99 MB

  Navy.CIS.S02E02.Die.perfekte.Frau.DL.DVDRiP.XviD-TvR.avi

400.01 MB

  Navy.CIS.S02E01.Unsichtbar.DL.DVDRiP.XviD-TvR.avi

399.99 MB

 Navy.CIS.S01.COMPLETE.GERMAN.DL.DVDRip.WS.XviD-TvR

  Navy.CIS.-.S01E23.-.Der.Terrorist.(Reveille).DL.DVDRiP.XviD-TvR.avi

399.83 MB

  Navy.CIS.-.S01E22.-.Abgestuerzt.(A.weak.link).DL.DVDRiP.XviD-TvR.avi

399.79 MB

  Navy.CIS.-.S01E21.-.Verbotene.Waffen.(Split.decision).DL.DVDRiP.XviD-TvR.avi

399.71 MB

  Navy.CIS.-.S01E20.-.Willkommen.in.der.Hoelle.(Missing).DL.DVDRiP.XviD-TvR.avi

400.00 MB

  Navy.CIS.-.S01E18.-.Falsche.Faehrten..(UnSEALed).DL.DVDRiP.XviD-TvR.avi

400.00 MB

  Navy.CIS.-.S01E19.-.Wenn.Tote.sprechen.(Dead.Man.Talking).DL.DVDRiP.XviD-TvR.avi

400.01 MB

  Navy.CIS.-.S01E17.-.Fuenf.Musketiere.(The.Truth.is.out.there).DL.DVDRiP.XviD-TvR.avi

399.98 MB

  Navy.CIS.-.S01E16.-.Alptraum.im.Keller.(Bete.Noir).DL.DVDRiP.XviD-TvR.avi

400.00 MB

  Navy.CIS.-.S01E15.-.Der.Colonel.(Enigma).DL.DVDRiP.XviD-TvR.avi

400.02 MB

  Navy.CIS.-.S01E14.-.Der.gute.Samariter.(The.Good.Samaritan).DL.DVDRiP.XviD-TvR.avi

400.02 MB

  Navy.CIS.-.S01E13.-.Todesschuesse.(One.shot.one.kill).DL.DVDRiP.XviD-TvR.avi

400.00 MB

  Navy.CIS.-.S01E12.-.Ein.Bein.in.West.Virginia.(My.other.left.foot).DL.DVDRiP.XviD-TvR.avi

400.00 MB

  Navy.CIS.-.S01E11.-.Wintersonne.(Eye.spy).DL.DVDRiP.XviD-TvR.avi

399.99 MB

  Navy.CIS.-.S01E10.-.Lebendig.Begraben.(Left.for.dead).DL.DVDRiP.XviD-TvR.avi

400.00 MB

  Navy.CIS.-.S01E09.-.Anruf.von.einem.Toten.(Marine.Down).DL.DVDRiP.XviD-TvR.avi

399.77 MB

  Navy.CIS.-.S01E08.-.Schlimmer.als.der.Tod.(Minimum.Security).DL.DVDRiP.XviD-TvR.avi

400.01 MB

  Navy.CIS.-.S01E07.-.Unter.Wasser.(Sub.Rosa).DL.DVDRiP.XviD-TvR.avi

399.82 MB

  Navy.CIS.-.S01E06.-.Speed.(High.Seas).DL.DVDRiP.XviD-TvR.avi

400.00 MB

  Navy.CIS.-.S01E05.-.Der.Fluch.der.Mumie.(The.Curse).DL.DVDRiP.XviD-TvR.avi

399.72 MB

  Navy.CIS.-.S01E04.-.Die.Unsterblichen.(The.Immortals).DL.DVDRiP.XviD-TvR.avi

400.00 MB

  Navy.CIS.-.S01E03.-.Seadog.(Seadog).DL.DVDRiP.XviD-TvR.avi

399.78 MB

  Navy.CIS.-.S01E02.-.Sprung.in.den.Tod.(Hung.out.to.dry).DL.DVDRiP.XviD-TvR.avi

400.00 MB

  Navy.CIS.-.S01E01.-.Air.Force.One.(Yankee.White).DL.DVDRiP.XviD-TvR.avi

400.01 MB
 

tracker

leech seeds
 

Torrent description

Navy CIS Staffel 1-5




Staffel 1 Deutsch-Englisch TVR


General
Complete name : Navy CIS
Format : AVI
Format/Info : Audio Video Interleave
File size : Variable
Duration : Variable
Overall bit rate : 1 316 Kbps
Writing application : VirtualDubMod 1.5.4.1 (build 2178/release)
Writing library : VirtualDubMod build 2178/release

Video
Format : MPEG-4 Visual
Format profile : Streaming [email protected]
Format settings, BVOP : Yes
Format settings, QPel : No
Format settings, GMC : No warppoints
Format settings, Matrix : Custom
Codec ID : XVID
Codec ID/Hint : XviD
Duration : Variable
Bit rate : 1 076 Kbps
Width : 640 pixels
Height : 368 pixels
Display aspect ratio : 16/9
Frame rate : 25.000 fps
Resolution : 24 bits
Colorimetry : 4:2:0
Scan type : Progressive
Bits/(Pixel*Frame) : 0.183
Stream size : Variable MiB
Writing library : XviD 1.2.0SMP (UTC 2006-01-08)

Audio #1
Format : MPEG Audio
Format version : Version 1
Format profile : Layer 3
Codec ID : 55
Codec ID/Hint : MP3
Duration : Variable
Bit rate mode : Variable
Bit rate : 110 Kbps
Minimum bit rate : 128 Kbps
Channel(s) : 2 channels
Sampling rate : 48.0 KHz
Resolution : 16 bits
Stream size : 33.4 MiB (8)
Alignment : Aligned on interleaves
Interleave, duration : 24 ms (0.60 video frame)
Interleave, preload duration : 551 ms
Writing library : LAME3.97b
Encoding settings : ABR
Language : Deutsch

Audio #2
Format : MPEG Audio
Format version : Version 1
Format profile : Layer 3
Codec ID : 55
Codec ID/Hint : MP3
Duration : Variable
Bit rate mode : Variable
Bit rate : 109 Kbps
Minimum bit rate : 128 Kbps
Channel(s) : 2 channels
Sampling rate : 48.0 KHz
Resolution : 16 bits
Stream size : 33.2 MiB (8)
Alignment : Aligned on interleaves
Interleave, duration : 24 ms (0.60 video frame)
Interleave, preload duration : 168 ms
Writing library : LAME3.97b
Encoding settings : ABR
Language : English



Staffel 2 Deutsch-Englisch TVR


General
Complete name : Navy CIS
Format : AVI
Format/Info : Audio Video Interleave
File size : Variable
Duration : Variable
Overall bit rate : 1 316 Kbps
Writing application : VirtualDubMod 1.5.4.1 (build 2178/release)
Writing library : VirtualDubMod build 2178/release

Video
Format : MPEG-4 Visual
Format profile : Streaming [email protected]
Format settings, BVOP : Yes
Format settings, QPel : No
Format settings, GMC : No warppoints
Format settings, Matrix : Custom
Codec ID : XVID
Codec ID/Hint : XviD
Duration : Variable
Bit rate : 1 075 Kbps
Width : 640 pixels
Height : 352 pixels
Display aspect ratio : 16/9
Frame rate : 25.000 fps
Resolution : 24 bits
Colorimetry : 4:2:0
Scan type : Progressive
Bits/(Pixel*Frame) : 0.191
Stream size : 327 MiB (82)
Writing library : XviD 1.2.0SMP (UTC 2006-01-08)

Audio #1
Format : MPEG Audio
Format version : Version 1
Format profile : Layer 3
Codec ID : 55
Codec ID/Hint : MP3
Duration : Variable
Bit rate mode : Variable
Bit rate : 111 Kbps
Minimum bit rate : 128 Kbps
Channel(s) : 2 channels
Sampling rate : 48.0 KHz
Resolution : 16 bits
Stream size : 33.8 MiB (8)
Alignment : Aligned on interleaves
Interleave, duration : 24 ms (0.60 video frame)
Interleave, preload duration : 165 ms
Writing library : LAME3.97b
Encoding settings : ABR
Language : Deutsch

Audio #2
Format : MPEG Audio
Format version : Version 1
Format profile : Layer 3
Codec ID : 55
Codec ID/Hint : MP3
Duration : Variable
Bit rate mode : Variable
Bit rate : 109 Kbps
Minimum bit rate : 128 Kbps
Channel(s) : 2 channels
Sampling rate : 48.0 KHz
Resolution : 16 bits
Stream size : 33.0 MiB (8)
Alignment : Aligned on interleaves
Interleave, duration : 24 ms (0.60 video frame)
Interleave, preload duration : 533 ms
Writing library : LAME3.97b
Encoding settings : ABR
Language : English



Staffel 3 Deutsch TVR


General
Complete name :NavyCIS
Format : AVI
Format/Info : Audio Video Interleave
File size : Variable
Duration : Variable
Overall bit rate : 1 126 Kbps
Writing application : Nandub v1.0rc2
Writing library : Nandub build 1852/release

Video
Format : MPEG-4 Visual
Codec ID : XVID
Codec ID/Hint : XviD
Duration : Variable
Bit rate : 953 Kbps
Width : 640 pixels
Height : 352 pixels
Display aspect ratio : 16/9
Frame rate : 25.000 fps
Resolution : 16 bits
Bits/(Pixel*Frame) : 0.169
Stream size : 296 MiB (85)

Audio
Format : MPEG Audio
Codec ID : 55
Codec ID/Hint : MP3
Duration : Variable
Bit rate : 143 Kbps
Channel(s) : 2 channels
Sampling rate : 48.0 KHz
Stream size : 44.5 MiB (13)
Alignment : Aligned on interleaves
Interleave, duration : 24 ms (0.60 video frame)
Interleave, preload duration : 562 ms



Staffel 4 Deutsch-Englisch TVR


Complete name : Navy CIS
Format : AVI
Format/Info : Audio Video Interleave
File size : Variable
Duration : Variable
Overall bit rate : 1 303 Kbps
Writing application : VirtualDubMod 1.5.10.2 (build 2540/release)
Writing library : VirtualDubMod build 2540/release

Video
Format : MPEG-4 Visual
Format profile : Streaming [email protected]
Format settings, BVOP : Yes
Format settings, QPel : No
Format settings, GMC : No warppoints
Format settings, Matrix : Default
Codec ID : XVID
Codec ID/Hint : XviD
Duration : Variable
Bit rate : 1 023 Kbps
Width : 640 pixels
Height : 352 pixels
Display aspect ratio : 16/9
Frame rate : 25.000 fps
Resolution : 24 bits
Colorimetry : 4:2:0
Scan type : Progressive
Bits/(Pixel*Frame) : 0.182
Stream size : 311 MiB (78)
Writing library : XviD 1.1.2 (UTC 2006-11-01)

Audio #1
Format : MPEG Audio
Format version : Version 1
Format profile : Layer 3
Codec ID : 55
Codec ID/Hint : MP3
Duration : Variable
Bit rate mode : Variable
Bit rate : 132 Kbps
Nominal bit rate : 128 Kbps
Channel(s) : 2 channels
Sampling rate : 48.0 KHz
Resolution : 16 bits
Stream size : 40.0 MiB (10)
Alignment : Aligned on interleaves
Interleave, duration : 24 ms (0.60 video frame)
Interleave, preload duration : 416 ms
Writing library : LAME3.90.
Encoding settings : ABR

Audio #2
Format : MPEG Audio
Format version : Version 1
Format profile : Layer 3
Codec ID : 55
Codec ID/Hint : MP3
Duration : Variable
Bit rate mode : Variable
Bit rate : 128 Kbps
Channel(s) : 2 channels
Sampling rate : 48.0 KHz
Resolution : 16 bits
Stream size : 38.8 MiB (10)
Alignment : Aligned on interleaves
Interleave, duration : 24 ms (0.60 video frame)
Interleave, preload duration : 144 ms
Writing library : LAME3.90.
Encoding settings : ABR



Staffel 5 Deutsch-Englisch TVR


General
Complete name : Navy CIS
Format : AVI
Format/Info : Audio Video Interleave
File size : Variable
Duration : Variable
Overall bit rate : 1 347 Kbps
Writing application : VirtualDubMod 1.5.10.2 (build 2540/release)
Writing library : VirtualDubMod build 2540/release

Video
Format : MPEG-4 Visual
Format profile : Streaming [email protected]
Format settings, BVOP : Yes
Format settings, QPel : No
Format settings, GMC : No warppoints
Format settings, Matrix : Default
Codec ID : XVID
Codec ID/Hint : XviD
Duration : Variable
Bit rate : 1 066 Kbps
Width : 640 pixels
Height : 352 pixels
Display aspect ratio : 16/9
Frame rate : 25.000 fps
Resolution : 24 bits
Colorimetry : 4:2:0
Scan type : Progressive
Bits/(Pixel*Frame) : 0.189
Stream size : 312 MiB (79)
Writing library : XviD 1.1.2 (UTC 2006-11-01)

Audio #1
Format : MPEG Audio
Format version : Version 1
Format profile : Layer 3
Codec ID : 55
Codec ID/Hint : MP3
Duration : Variable
Bit rate mode : Variable
Bit rate : 131 Kbps
Nominal bit rate : 128 Kbps
Channel(s) : 2 channels
Sampling rate : 48.0 KHz
Resolution : 16 bits
Stream size : 38.4 MiB (10)
Alignment : Aligned on interleaves
Interleave, duration : 24 ms (0.60 video frame)
Interleave, preload duration : 491 ms
Writing library : LAME3.90.
Encoding settings : ABR

Audio #2
Format : MPEG Audio
Format version : Version 1
Format profile : Layer 3
Codec ID : 55
Codec ID/Hint : MP3
Duration : Variable
Bit rate mode : Variable
Bit rate : 129 Kbps
Nominal bit rate : 128 Kbps
Channel(s) : 2 channels
Sampling rate : 48.0 KHz
Resolution : 16 bits
Stream size : 37.7 MiB (10)
Alignment : Aligned on interleaves
Interleave, duration : 24 ms (0.60 video frame)
Interleave, preload duration : 526 ms
Writing library : LAME3.90.
Encoding settings : ABR

related torrents

Torrent name

health leech seeds Size
 

comments (0)

Main Menu