Thriller

Extreme Measures (1996) Hugh Grant (DVDrip opt subs RU BLG) 4911161 TPB

  • Download 5x Faster
  • Download torrent
  • Direct Download
  • Rate this torrent +  |  -
Extreme Measures (1996) Hugh Grant (DVDrip opt subs RU BLG) 4911161 TPB

Free and Direct Download with Usenet 300GB+ free


Torrent info

Name:Extreme Measures (1996) Hugh Grant (DVDrip opt subs RU BLG) 4911161 TPB

Total Size: 715.46 MB

Magnet: Magnet Link

Seeds: 8

Leechers: 2

Stream: Watch Online @ Movie4u

Last Updated: 2016-01-31 19:45:14 (Update Now)

Torrent added: 2009-08-23 15:33:51




Torrent Files List


Optional subtitles (Size: 715.46 MB) (Files: 6)

 Optional subtitles

  Russian.rar

970.65 KB

  Notes on subtitle files and burning of discs.txt

2.57 KB

  Bulgarian.rar

1.36 MB

 Info about this release.txt

5.00 KB

 Extreme Measures (1996) Hugh Grant (DVDrip,opt.subs RU+BLG)_Kuth.avi

694.25 MB

 AA-Sample

  AA-Sample-Extreme Measures (1996) Hugh Grant_Kuth.avi

18.89 MB
 

tracker

leech seeds
 

Torrent description

http://www.imdb.com/title/tt0116259/

Optional subtitles in separate idx/sub files: Russian, Bulgarian. (Work in
Windows Media Player etc. - see enclosed Note)

With Sarah Jessica Parker and Gene Hackman.

"Not all surgery is intended to cure"

Rare film with Hugh Grant in a thriller: A British doctor working at a hospital
in New York starts investigating when the body of a man who died in his
emergency room disappears. The doctor soon finds himself in danger from people
who want the hospital's dark secrets to remain undiscovered.

I was surprised that I could not find any good DVDrip for this good film on the
net, so I made one for you. Thanks to the uploader who provided the Russian DVD
with the original English soundtrack intact. It had only Russian and Bulgarian
subtitles, so I include them to return the favor.

Widescreen DVDrip XviD 2-pass 704x272, great stereo sound AC3.
Runs well in both my standalone DivX players.

My new ripping procedure now produces decent quality for such a long film
compressed into just 700 MiB. I enclose a sample for ye weak in faith.

Format/Info : Audio Video Interleave
File size : 694 MiB
Duration : 1h 52mn
Overal bit rate : 861 Kbps

Video
Format : MPEG-4 Visual
Format profile : Streaming [email protected]
Format settings, BVOP : Yes
Format settings, QPel : No
Format settings, GMC : No warppoints
Format settings, Matrix : Default
Muxing mode : Packet Bitstream
Codec ID : XVID
Codec ID/Hint : XviD
Duration : 1h 52mn
Bit rate : 723 Kbps
Width : 720 pixels
Height : 272 pixels
Display aspect ratio : 2.647
Frame rate : 25.000 fps
Resolution : 8 bits
Colorimetry : 4:2:0
Scan type : Progressive
Bits/(Pixel*Frame) : 0.148
Stream size : 583 MiB
Writing library : XviD 1.2.0.dev47 (UTC 2006-11-01)

Audio
Format : MPEG Audio
Format version : Version 1
Format profile : Layer 3
Codec ID : 55
Codec ID/Hint : MP3
Duration : 1h 52mn
Bit rate mode : Constant
Bit rate : 128 Kbps
Minimum bit rate : 128 Kbps
Channel(s) : 2 channels
Sampling rate : 48.0 KHz
Resolution : 16 bits
Stream size : 103 MiB
Writing library : LAME3.97
Encoding settings : CBR

Source: PAL native (note that PAL/NTSC will give no problems for avi files).

See my original presentation at http://thepiratebay.org/user/Kuthumi/

related torrents

Torrent name

health leech seeds Size
 

comments (0)

Main Menu