Other

National Geographic Megastructures Future Trains 720p HDTV x264 DiCH [

  • Download 5x Faster
  • Download torrent
  • Direct Download
  • Rate this torrent +  |  -
National Geographic Megastructures Future Trains 720p HDTV x264 DiCH [

Free and Direct Download with Usenet.nl 300GB+ free


Torrent info

Name:National Geographic Megastructures Future Trains 720p HDTV x264 DiCH [

Total Size: 1.14 GB

Magnet: Magnet Link

Seeds: 0

Leechers: 1

Stream: Watch Online @ Movie4u

Last Updated: 2016-02-04 18:19:32 (Update Now)

Torrent added: 2009-08-23 15:33:42





Torrent Files List


dich-national.geographic.mft.720p.hdtv.x264.sfv (Size: 1.14 GB) (Files: 27)

 dich-national.geographic.mft.720p.hdtv.x264.sfv

1.36 KB

 dich-national.geographic.mft.720p.hdtv.x264.rar

47.68 MB

 dich-national.geographic.mft.720p.hdtv.x264.r22

33.68 MB

 dich-national.geographic.mft.720p.hdtv.x264.r21

47.68 MB

 dich-national.geographic.mft.720p.hdtv.x264.r20

47.68 MB

 dich-national.geographic.mft.720p.hdtv.x264.r19

47.68 MB

 dich-national.geographic.mft.720p.hdtv.x264.r18

47.68 MB

 dich-national.geographic.mft.720p.hdtv.x264.r17

47.68 MB

 dich-national.geographic.mft.720p.hdtv.x264.r16

47.68 MB

 dich-national.geographic.mft.720p.hdtv.x264.r15

47.68 MB

 dich-national.geographic.mft.720p.hdtv.x264.r14

47.68 MB

 dich-national.geographic.mft.720p.hdtv.x264.r13

47.68 MB

 dich-national.geographic.mft.720p.hdtv.x264.r12

47.68 MB

 dich-national.geographic.mft.720p.hdtv.x264.r11

47.68 MB

 dich-national.geographic.mft.720p.hdtv.x264.r10

47.68 MB

 dich-national.geographic.mft.720p.hdtv.x264.r09

47.68 MB

 dich-national.geographic.mft.720p.hdtv.x264.r08

47.68 MB

 dich-national.geographic.mft.720p.hdtv.x264.r07

47.68 MB

 dich-national.geographic.mft.720p.hdtv.x264.r06

47.68 MB

 dich-national.geographic.mft.720p.hdtv.x264.r05

47.68 MB

 dich-national.geographic.mft.720p.hdtv.x264.r04

47.68 MB

 dich-national.geographic.mft.720p.hdtv.x264.r03

47.68 MB

 dich-national.geographic.mft.720p.hdtv.x264.r02

47.68 MB

 dich-national.geographic.mft.720p.hdtv.x264.r01

47.68 MB

 dich-national.geographic.mft.720p.hdtv.x264.r00

47.68 MB

 dich-national.geographic.mft.720p.hdtv.x264.nfo

2.70 KB

 Sample

  dich-national.geographic.mft.720p.hdtv.x264.sample.mkv

32.98 MB
 

tracker

leech seeds
 

Torrent description

National.Geographic.Megastructures.Future.Trains.720p.HDTV.x264-DiCH

Format : Matroska
File size : 1.09 GiB
Duration : 46mn 59s
Overall bit rate : 3 331 Kbps
Encoded date : UTC 2009-03-21 18:50:18
Writing application : mkvmerge v2.2.0 ('Turn It On Again') built on Mar 4 2008 12:58:26
Writing library : libebml v0.7.7 + libmatroska v0.8.1

Video
ID : 1
Format : AVC
Format/Info : Advanced Video Codec
Format profile : [email protected]
Format settings, CABAC : Yes
Format settings, ReFrames : 5 frames
Muxing mode : Container [email protected]
Codec ID : V_MPEG4/ISO/AVC
Duration : 46mn 59s
Bit rate : 2 880 Kbps
Nominal bit rate : 2 943 Kbps
Width : 1 280 pixels
Height : 720 pixels
Display aspect ratio : 16/9
Frame rate : 25.000 fps
Resolution : 24 bits
Colorimetry : 4:2:0
Scan type : Progressive
Bits/(Pixel*Frame) : 0.125
Stream size : 968 MiB (86%)
Writing library : x264 core 60 r900 a9af942
Encoding settings : cabac=1 / ref=5 / deblock=1:0:0 / analyse=0x3:0x133 / me=umh / subme=6 / brdo=1 / mixed_ref=1 / me_range=8 / chroma_me=1 / trellis=1 / 8x8dct=1 / cqm=0 / deadzone=21,11 / chroma_qp_offset=0 / threads=3 / nr=0 / decimate=1 / mbaff=0 / bframes=3 / b_pyramid=1 / b_adapt=1 / b_bias=0 / direct=3 / wpredb=1 / bime=1 / keyint=250 / keyint_min=50 / scenecut=40(pre) / rc=2pass / bitrate=2943 / ratetol=1.0 / rceq='blurCplx^(1-qComp)' / qcomp=1.00 / qpmin=10 / qpmax=51 / qpstep=4 / cplxblur=20.0 / qblur=0.5 / ip_ratio=1.40 / pb_ratio=1.30 / aq=2:1.00

Audio
ID : 2
Format : AC-3
Format/Info : Audio Coding 3
Codec ID : A_AC3
Duration : 46mn 59s
Bit rate mode : Constant
Bit rate : 384 Kbps
Channel(s) : 6 channels
Channel positions : Front: L C R, Surround: L R, LFE
Sampling rate : 48.0 KHz
Stream size : 129 MiB (12%)
Language : English

related torrents

Torrent name

health leech seeds Size
 

comments (0)

Main Menu