Drama

Man Push Cart (2005) DVDRip XviD ~ Smeet

  • Download 5x Faster
  • Download torrent
  • Direct Download
  • Rate this torrent +  |  -
Man Push Cart (2005) DVDRip XviD ~ Smeet

Anonymous and Free Direct Download 300GB+


Torrent info

Name:Man Push Cart (2005) DVDRip XviD ~ Smeet

Total Size: 539.23 MB

Magnet: Magnet Link

Seeds: 6

Leechers: 3

Stream: Watch Online @ Movie4u

Last Updated: 2010-12-04 00:05:08 (Update Now)

Torrent added: 2009-08-23 15:33:31



VPN For Torrents

Torrent Files List


smeet.nfo (Size: 539.23 MB) (Files: 2)

 smeet.nfo

7.18 KB

 Man Push Cart (2005)-DVDRip-XviD ~ Smeet.avi

539.22 MB
 

Announce URL: http://open.tracker.thepiratebay.org/announce

Torrent description


################## TM
##^^^^^^^^^^^^^^^^####
############## #^^^^^^^^^^^^^^^^^^^##
###### #### #########^^^^^# #^^^^^#########^^^^^#
###### ####### ###########^^^# #^^^^^^^^^^^^^#^^^^^#
####### ####### ############^^## #^^^^^^^^^^^^^#^^^^^#
################################# ############^^^###^^^^^^^^^^^^^#^^^^^#
############################################^#^^#^^^^^^^^^^^^^^^^#^^^^^#
#####################################^^^^^^^^#^^#########^^^#######^^^^#####
####################################^^^^^^^^^##^^^^^^^^^##^^#^^^^^^^^^^^^^^##
####################################^^^^^^^^^^###^^^^^^^^#^^#^^^^^^^^^^^^^^^##
######################### ##########^^^^^####^^##^^^^^^^^#^^#^^^^^^^^^^^^^^^##
####################################^########^^#^#########^^######^^^^^######
#############################################^^#^#^^^^^^^^^^^^^^^#^^^^^#
##############################################^#^#^^^^^^^^^^^^^^^#^^^^^#
##############################################^#^#^^^^^^^^^^^^^^^#^^^^^#
##################################^^^^^^^^^^#^#^^^^^^^^^^^^^^^#^^^^^#
############################################^^^#^##^^^^^^^^^^^^^^#^^^^^#
##############################################^#^^^###^^^^^^^^^^^#^^^^^#
#################################################^^^^#^^^^^^^^^^^#^^^^^#
###############################################^######^^^^^^^^^^^#^^^^^#
###################### ###### ##############^^^^^^^^^^^########^^^^^#
###################### ###### ##############^^##^^^^^^^# #^^^^^^#
###################### ###### ##################^^^^^^^# #^^^^^^#
############## ############### ######^^# ########
############## ############### ###
#############
MEANS QUALITY

=======================================================
= Man Push Cart (2005) =
=======================================================

|##############################################################################|
| |
|GENERAL INFORMATION |
|=================== |
|Format : AVI |
|Format/Info : Audio Video Interleave |
|Format profile : OpenDML |
|File size : 539 MiB |
|Duration : 1h 26mn |
|Overall bit rate : 868 Kbps |
|Language : English | Urdu Source: DVD |
|SUBTITLE : No |
|GENRE : Drama |
|IMDB LINK : http://www.imdb.com/title/tt0464105/ |
|IMDB RATING : 6.9/10 |
|RIPPER : SMEET |
|##############################################################################|

|##############################################################################|
| |
|Video |
|Format : MPEG-4 Visual |
|Format settings, Matrix : Custom |
|Codec ID : XVID |
|Codec ID/Hint : XviD |
|Duration : 1h 26mns |
|Width : 608 pixels |
|Height : 336 pixels |
|Display aspect ratio : 16/9 |
|Frame rate : 25.000 fps |
|Resolution : 24 bits |
|Colorimetry : 4:2:0 |
|Scan type : Progressive |
|Bits/(Pixel*Frame) : 0.144 |
|Stream size : 457 MiB (85%) |
|Writing library : XviD 1.2.1 (UTC 2008-12-04) rter. |
|##############################################################################|
|Audio |
|Format : MPEG Audio |
|Format version : Version 1 |
|Format profile : Layer 3 |
|Codec ID : 55 |
|Codec ID/Hint : MP3 |
|Duration : 1h 26mn |
|Bit rate mode : Constant |
|Bit rate : 128 Kbps |
|Channel(s) : 2 channels |
|Sampling rate : 48.0 KHz |
|Resolution : 16 bits |
|Stream size : 79.5 MiB (15%) |
|Alignment : Aligned on interleaves |
|Interleave, duration : 827 ms (20.67 video frames) |
|Interleave, preload duration : 216 ms |
|Title : man~smeet T80 2_0ch 192Kbps DELAY 0ms0mss |
|Writing library : LAME3.98r |
|Encoding settings : -m j -V 4 -q 2 -lowpass 17 -b 128 |
| |
| ALL MY RELEAASES AVAILABLE AT http://thepiratebay.org/user/bonkingph/ |
| http://www.ahashare.com/account-details.php?id=28583 |
|##############################################################################|
www.AhaShare.Com




related torrents

Torrent name

health leech seeds Size

Man Push Cart (2005)

0 0 710.22 MB 0
 


comments (0)

Main Menu