Other

National Geographic Inside Super Carrier 720p HDTV x264 PiX[

  • Download 5x Faster
  • Download torrent
  • Direct Download
  • Rate this torrent +  |  -
National Geographic Inside Super Carrier 720p HDTV x264 PiX[

Anonymous and Free Direct Download 300GB+


Torrent info

Name:National Geographic Inside Super Carrier 720p HDTV x264 PiX[

Total Size: 1.12 GB

Magnet: Magnet Link

Seeds: 0

Leechers: 0

Stream: Watch Online @ Movie4u

Last Updated: 2016-02-03 22:38:02 (Update Now)

Torrent added: 2009-08-23 15:32:09



VPN For Torrents

Torrent Files List


pix-ngisc.720p.hdtv.x264.sfv (Size: 1.12 GB) (Files: 27)

 pix-ngisc.720p.hdtv.x264.sfv

0.91 KB

 pix-ngisc.720p.hdtv.x264.rar

47.68 MB

 pix-ngisc.720p.hdtv.x264.r22

22.10 MB

 pix-ngisc.720p.hdtv.x264.r21

47.68 MB

 pix-ngisc.720p.hdtv.x264.r20

47.68 MB

 pix-ngisc.720p.hdtv.x264.r19

47.68 MB

 pix-ngisc.720p.hdtv.x264.r18

47.68 MB

 pix-ngisc.720p.hdtv.x264.r17

47.68 MB

 pix-ngisc.720p.hdtv.x264.r16

47.68 MB

 pix-ngisc.720p.hdtv.x264.r15

47.68 MB

 pix-ngisc.720p.hdtv.x264.r14

47.68 MB

 pix-ngisc.720p.hdtv.x264.r13

47.68 MB

 pix-ngisc.720p.hdtv.x264.r12

47.68 MB

 pix-ngisc.720p.hdtv.x264.r11

47.68 MB

 pix-ngisc.720p.hdtv.x264.r10

47.68 MB

 pix-ngisc.720p.hdtv.x264.r09

47.68 MB

 pix-ngisc.720p.hdtv.x264.r08

47.68 MB

 pix-ngisc.720p.hdtv.x264.r07

47.68 MB

 pix-ngisc.720p.hdtv.x264.r06

47.68 MB

 pix-ngisc.720p.hdtv.x264.r05

47.68 MB

 pix-ngisc.720p.hdtv.x264.r04

47.68 MB

 pix-ngisc.720p.hdtv.x264.r03

47.68 MB

 pix-ngisc.720p.hdtv.x264.r02

47.68 MB

 pix-ngisc.720p.hdtv.x264.r01

47.68 MB

 pix-ngisc.720p.hdtv.x264.r00

47.68 MB

 pix-ngisc.720p.hdtv.x264.nfo

8.30 KB

 Sample

  national.geographic.inside.super.carrier.720p.hdtv.x264.sample-pix.mkv

29.61 MB
 

tracker

leech seeds
 

Torrent description

National.Geographic.Inside.Super.Carrier.720p.HDTV.x264-PiX

The USS Eisenhower is the pinnacle of aircraft carrier technology. The 97,000-ton steel monster boasts next-generation radar and combat capabilities and is run by 6,000 personnel. See it in action during her final trials before combat.

MediaInfo:

Format : Matroska
File size : 1.09 GiB
Duration : 40mn 28s
Overall bit rate : 3 865 Kbps
Encoded date : UTC 2009-04-04 12:01:55
Writing application : mkvmerge v2.2.0 ('Turn It On Again') built on Mar 4 2008 12:58:26
Writing library : libebml v0.7.7 + libmatroska v0.8.1

Video
ID : 1
Format : AVC
Format/Info : Advanced Video Codec
Format profile : [email protected]
Format settings, CABAC : Yes
Format settings, ReFrames : 3 frames
Muxing mode : Container [email protected]
Codec ID : V_MPEG4/ISO/AVC
Duration : 40mn 28s
Bit rate : 3 404 Kbps
Nominal bit rate : 3 477 Kbps
Width : 1 280 pixels
Height : 720 pixels
Display aspect ratio : 16/9
Frame rate : 25.000 fps
Resolution : 24 bits
Colorimetry : 4:2:0
Scan type : Progressive
Bits/(Pixel*Frame) : 0.148
Stream size : 985 MiB (88%)
Writing library : x264 core 60 r886M 1075536
Encoding settings : cabac=1 / ref=3 / deblock=1:0:0 / analyse=0x3:0x133 / me=hex / subme=6 / rdcmp=psy / brdo=1 / mixed_ref=1 / me_range=16 / chroma_me=1 / trellis=1 / 8x8dct=1 / cqm=0 / deadzone=21,11 / chroma_qp_offset=0 / threads=6 / nr=0 / decimate=1 / mbaff=0 / bframes=3 / b_pyramid=1 / b_adapt=1 / b_bias=0 / direct=1 / wpredb=1 / bime=1 / keyint=250 / keyint_min=25 / scenecut=40(pre) / rc=2pass / bitrate=3477 / ratetol=1.0 / rceq='blurCplx^(1-qComp)' / qcomp=1.00 / qpmin=10 / qpmax=51 / qpstep=4 / cplxblur=20.0 / qblur=0.5 / ip_ratio=1.40 / pb_ratio=1.30 / aq=2:1.00
Language : English

Audio
ID : 2
Format : AC-3
Format/Info : Audio Coding 3
Codec ID : A_AC3
Duration : 40mn 28s
Bit rate mode : Constant
Bit rate : 384 Kbps
Channel(s) : 6 channels
Channel positions : Front: L C R, Surround: L R, LFE
Sampling rate : 48.0 KHz
Stream size : 111 MiB (10%)

related torrents

Torrent name

health leech seeds Size
 


comments (0)

Main Menu