Other

National Geographic Devils Bible HDTV XviD TekOne[ org]

  • Download 5x Faster
  • Download torrent
  • Direct Download
  • Rate this torrent +  |  -

Torrent info

Name:National Geographic Devils Bible HDTV XviD TekOne[ org]

Total Size: 337.58 MB

Magnet: Magnet Link

Seeds: 0

Leechers: 0

Stream: Watch Full Movie @ Movie4u

Last Updated: 2010-08-07 11:15:17 (Update Now)

Torrent added: 2009-08-23 15:30:54



VPN For Torrents

Torrent Files List


National.Geographic.Devils.Bible.HDTV.XviD-TekOne.avi (Size: 337.58 MB) (Files: 1)

 National.Geographic.Devils.Bible.HDTV.XviD-TekOne.avi

337.58 MB
 

Announce URL: http://www.seedmore.org/announce.php?passkey=smpk420110802e147eecf9b07912dee8

Torrent description

~ Seedmore ~

Hi m8! Were you thinking about joining a private tracker, well what are you waiting for!! we are a Italian Mob theme website with a new twist ;)
we are focused on fast uploads, new content, and above all: user security ;)
are you also tired of malware and Hit & Runners,:(
Are you an experienced uploader Huh, See forums for how to apply.
well what are you waiting for doors will not be open for long so start typing to join: http://tinyurl.com/seedmore NOW!!!!!!

I want to see you at Seedmore.org :)


Allegedly made from the skins of 160 donkeys, the Codex Gigas is the world's largest and most mysterious medieval manuscript. According to legend, the cursed text sprang from a doomed monk's pact with the devil.



General

Complete name : National.Geographic.Devils.Bible.HDTV.XviD-TekOne.avi

Format : AVI

Format/Info : Audio Video Interleave

File size : 338 MiB

Duration : 45mn 49s

Overall bit rate : 1 030 Kbps

Writing library : VirtualDub build 0/release



Video

Format : MPEG-4 Visual

Format settings, BVOP : No

Format settings, QPel : No

Format settings, GMC : No warppoints

Format settings, Matrix : Default

Codec ID : XVID

Codec ID/Hint : XviD

Duration : 45mn 49s

Bit rate : 890 Kbps

Width : 608 pixels

Height : 352 pixels

Display aspect ratio : 16/9

Frame rate : 29.970 fps

Resolution : 24 bits

Colorimetry : 4:2:0

Scan type : Progressive

Bits/(Pixel*Frame) : 0.139

Stream size : 292 MiB (86%)

Writing library : XviD 50



Audio

Format : MPEG Audio

Format version : Version 1

Format profile : Layer 3

Codec ID : 55

Codec ID/Hint : MP3

Duration : 45mn 49s

Bit rate mode : Constant

Bit rate : 128 Kbps

Channel(s) : 2 channels

Sampling rate : 48.0 KHz

Resolution : 16 bits

Stream size : 41.9 MiB (12%)

Alignment : Aligned on interleaves

Interleave, duration : 33 ms (1.00 video frame)

Interleave, preload duration : 480 ms

Writing library : LAME3.97

related torrents

Torrent name

health leech seeds Size
 


comments (0)

Main Menu

 

script data-cfasync="false" src="//d2ghscazvn398x.cloudfront.net/?cshgd=690275">