Electronic

The Flashbulb Red Extensions of Me

  • Download 5x Faster
  • Download torrent
  • Direct Download
  • Rate this torrent +  |  -
The Flashbulb Red Extensions of Me

Free and Direct Download with Usenet.nl 300GB+ free


Torrent info

Name:The Flashbulb Red Extensions of Me

Total Size: 144.48 MB

Magnet: Magnet Link

Seeds: 0

Leechers: 0

Stream: Watch Online @ Movie4u

Last Updated: 2015-01-11 09:11:00 (Update Now)

Torrent added: 2009-08-23 14:57:38





Torrent Files List


18 - Lucid Bass II.mp3 (Size: 144.48 MB) (Files: 19)

 18 - Lucid Bass II.mp3

20.00 MB

 Red Extensions Of Me.log

17.08 KB

 14 - Sunset Hamlin.mp3

5.94 MB

 15 - Earthtone Morphine Battery.mp3

8.25 MB

 16 - Eight Empty Beds.mp3

3.27 MB

 17 - Lucid Bass I.mp3

18.18 MB

 10 - Didj Z.mp3

4.40 MB

 11 - Black Lawn Finale.mp3

10.13 MB

 12 - Sensual Data.mp3

11.79 MB

 13 - Never Remember January.mp3

5.97 MB

 06 - An External Frost.mp3

6.83 MB

 07 - Planet Th.mp3

7.18 MB

 08 - If Trees Could Speak.mp3

4.14 MB

 09 - The Son And The Star.mp3

5.58 MB

 03 - Lawn Wake II.mp3

7.31 MB

 04 - Lawn Wake III.mp3

8.01 MB

 05 - Sun Rise Jul.mp3

2.95 MB

 01 - In An Instant.mp3

4.70 MB

 02 - Lawn Wake I.mp3

9.82 MB
 

Announce URL:

Torrent description

X Lossless Decoder version 20080926 (93.3)

XLD extraction logfile from 2009-01-25 18:10:09 -0600

The Flashbulb / Red Extensions Of Me

Used drive : MATSHITA DVD-R UJ-857E (revision ZF1E)

Use cdparanoia mode : YES (CDParanoia III 10.2 engine)
Disable audio cache : OK for the drive with cache less than 2750KB
Make use of C2 pointers : NO
Read offset correction : 102
Max retry count : 100

TOC of the extracted CD
Track | Start | Length | Start sector | End sector
---------------------------------------------------------
1 | 00:00:00 | 02:02:64 | 0 | 9213
2 | 02:02:64 | 04:17:08 | 9214 | 28496
3 | 06:19:72 | 03:11:17 | 28497 | 42838
4 | 09:31:14 | 03:29:39 | 42839 | 58552
5 | 13:00:53 | 01:16:74 | 58553 | 64326
6 | 14:17:52 | 02:58:55 | 64327 | 77731
7 | 17:16:32 | 03:07:58 | 77732 | 91814
8 | 20:24:15 | 01:48:01 | 91815 | 99915
9 | 22:12:16 | 02:25:53 | 99916 | 110843
10 | 24:37:69 | 01:54:74 | 110844 | 119467
11 | 26:32:68 | 04:25:04 | 119468 | 139346
12 | 30:57:72 | 05:08:43 | 139347 | 162489
13 | 36:06:40 | 02:36:00 | 162490 | 174189
14 | 38:42:40 | 02:35:18 | 174190 | 185832
15 | 41:17:58 | 03:35:70 | 185833 | 202027
16 | 44:53:53 | 01:25:15 | 202028 | 208417
17 | 46:18:68 | 07:56:16 | 208418 | 244133
18 | 54:15:09 | 08:43:68 | 244134 | 283426

List of alternate offset correction values
# | Absolute | Relative | Confidence
------------------------------------------
1 | 132 | 30 | 2

Track 01
Filename : /Users/Jason/Desktop/The Flashbulb - Red Extensions of Me/01 - In An Instant.mp3

CRC32 hash (test run) : 3866FD85
CRC32 hash : 3866FD85
CRC32 hash (skip zero) : 7CB3A104
AccurateRip signature : 52077551
->Rip may not be accurate.
Statistics
Read error : 0
Skipped (treated as error) : 0
Edge jitter error (maybe fixed) : 0
Atom jitter error (maybe fixed) : 0
Drift error (maybe fixed) : 0
Dropped bytes error (maybe fixed) : 0
Duplicated bytes error (maybe fixed) : 0
Inconsistency in error sectors : 0

Track 02
Filename : /Users/Jason/Desktop/The Flashbulb - Red Extensions of Me/02 - Lawn Wake I.mp3

CRC32 hash (test run) : FF86C118
CRC32 hash : FF86C118
CRC32 hash (skip zero) : 05148076
AccurateRip signature : FC5716FC
->Accurately ripped! (confidence 2)
(matched with the different offset correction value;
calculated using an additional offset of 30;
the signature after correction is: 8876F377)
Statistics
Read error : 0
Skipped (treated as error) : 0
Edge jitter error (maybe fixed) : 0
Atom jitter error (maybe fixed) : 0
Drift error (maybe fixed) : 0
Dropped bytes error (maybe fixed) : 0
Duplicated bytes error (maybe fixed) : 0
Inconsistency in error sectors : 0

Track 03
Filename : /Users/Jason/Desktop/The Flashbulb - Red Extensions of Me/03 - Lawn Wake II.mp3

CRC32 hash (test run) : 8B25DBFC
CRC32 hash : 8B25DBFC
CRC32 hash (skip zero) : 90E7EA6E
AccurateRip signature : 203DEA5B
->Accurately ripped! (confidence 2)
(matched with the different offset correction value;
calculated using an additional offset of 30;
the signature after correction is: FE3C054E)
Statistics
Read error : 0
Skipped (treated as error) : 0
Edge jitter error (maybe fixed) : 0
Atom jitter error (maybe fixed) : 0
Drift error (maybe fixed) : 0
Dropped bytes error (maybe fixed) : 0
Duplicated bytes error (maybe fixed) : 0
Inconsistency in error sectors : 0

Track 04
Filename : /Users/Jason/Desktop/The Flashbulb - Red Extensions of Me/04 - Lawn Wake III.mp3

CRC32 hash (test run) : C26D9B12
CRC32 hash : C26D9B12
CRC32 hash (skip zero) : 7BBF1DE8
AccurateRip signature : 996F1903
->Accurately ripped! (confidence 2)
(matched with the different offset correction value;
calculated using an additional offset of 30;
the signature after correction is: ED6A641A)
Statistics
Read error : 0
Skipped (treated as error) : 0
Edge jitter error (maybe fixed) : 0
Atom jitter error (maybe fixed) : 0
Drift error (maybe fixed) : 0
Dropped bytes error (maybe fixed) : 0
Duplicated bytes error (maybe fixed) : 0
Inconsistency in error sectors : 0

Track 05
Filename : /Users/Jason/Desktop/The Flashbulb - Red Extensions of Me/05 - Sun Rise Jul.mp3

CRC32 hash (test run) : 0189F10C
CRC32 hash : 0189F10C
CRC32 hash (skip zero) : 88E9BC1B
AccurateRip signature : D910FBEF
->Accurately ripped! (confidence 2)
(matched with the different offset correction value;
calculated using an additional offset of 30;
the signature after correction is: A968B397)
Statistics
Read error : 0
Skipped (treated as error) : 0
Edge jitter error (maybe fixed) : 0
Atom jitter error (maybe fixed) : 0
Drift error (maybe fixed) : 0
Dropped bytes error (maybe fixed) : 0
Duplicated bytes error (maybe fixed) : 0
Inconsistency in error sectors : 0

Track 06
Filename : /Users/Jason/Desktop/The Flashbulb - Red Extensions of Me/06 - An External Frost.mp3

CRC32 hash (test run) : 2AE8E307
CRC32 hash : 2AE8E307
CRC32 hash (skip zero) : C81D16BB
AccurateRip signature : 3D3E388E
->Accurately ripped! (confidence 2)
(matched with the different offset correction value;
calculated using an additional offset of 30;
the signature after correction is: D25B7668)
Statistics
Read error : 0
Skipped (treated as error) : 0
Edge jitter error (maybe fixed) : 0
Atom jitter error (maybe fixed) : 0
Drift error (maybe fixed) : 0
Dropped bytes error (maybe fixed) : 0
Duplicated bytes error (maybe fixed) : 0
Inconsistency in error sectors : 0

Track 07
Filename : /Users/Jason/Desktop/The Flashbulb - Red Extensions of Me/07 - Planet Th.mp3

CRC32 hash (test run) : 9E775035
CRC32 hash : 9E775035
CRC32 hash (skip zero) : 4066FB3F
AccurateRip signature : 1A54D97B
->Accurately ripped! (confidence 2)
(matched with the different offset correction value;
calculated using an additional offset of 30;
the signature after correction is: 29EA32A9)
Statistics
Read error : 0
Skipped (treated as error) : 0
Edge jitter error (maybe fixed) : 0
Atom jitter error (maybe fixed) : 0
Drift error (maybe fixed) : 0
Dropped bytes error (maybe fixed) : 0
Duplicated bytes error (maybe fixed) : 0
Inconsistency in error sectors : 0

Track 08
Filename : /Users/Jason/Desktop/The Flashbulb - Red Extensions of Me/08 - If Trees Could Speak.mp3

CRC32 hash (test run) : 9B463599
CRC32 hash : 9B463599
CRC32 hash (skip zero) : A48EB79F
AccurateRip signature : 017391D8
->Accurately ripped! (confidence 2)
(matched with the different offset correction value;
calculated using an additional offset of 30;
the signature after correction is: 65BCDECF)
Statistics
Read error : 0
Skipped (treated as error) : 0
Edge jitter error (maybe fixed) : 0
Atom jitter error (maybe fixed) : 0
Drift error (maybe fixed) : 0
Dropped bytes error (maybe fixed) : 0
Duplicated bytes error (maybe fixed) : 0
Inconsistency in error sectors : 0

Track 09
Filename : /Users/Jason/Desktop/The Flashbulb - Red Extensions of Me/09 - The Son And The Star.mp3

CRC32 hash (test run) : 8C4D3271
CRC32 hash : 8C4D3271
CRC32 hash (skip zero) : 5E6FAF79
AccurateRip signature : 09F4C614
->Accurately ripped! (confidence 2)
(matched with the different offset correction value;
calculated using an additional offset of 30;
the signature after correction is: 7489742D)
Statistics
Read error : 0
Skipped (treated as error) : 0
Edge jitter error (maybe fixed) : 0
Atom jitter error (maybe fixed) : 0
Drift error (maybe fixed) : 0
Dropped bytes error (maybe fixed) : 0
Duplicated bytes error (maybe fixed) : 0
Inconsistency in error sectors : 0

Track 10
Filename : /Users/Jason/Desktop/The Flashbulb - Red Extensions of Me/10 - Didj Z.mp3

CRC32 hash (test run) : F6540299
CRC32 hash : F6540299
CRC32 hash (skip zero) : 46C949AF
AccurateRip signature : 8BD53B5E
->Accurately ripped! (confidence 2)
(matched with the different offset correction value;
calculated using an additional offset of 30;
the signature after correction is: 8E34E053)
Statistics
Read error : 0
Skipped (treated as error) : 0
Edge jitter error (maybe fixed) : 0
Atom jitter error (maybe fixed) : 0
Drift error (maybe fixed) : 0
Dropped bytes error (maybe fixed) : 0
Duplicated bytes error (maybe fixed) : 0
Inconsistency in error sectors : 0

Track 11
Filename : /Users/Jason/Desktop/The Flashbulb - Red Extensions of Me/11 - Black Lawn Finale.mp3

CRC32 hash (test run) : C85E158F
CRC32 hash : C85E158F
CRC32 hash (skip zero) : 2FBEF663
AccurateRip signature : 087CEC00
->Accurately ripped! (confidence 2)
(matched with the different offset correction value;
calculated using an additional offset of 30;
the signature after correction is: FC26E8B7)
Statistics
Read error : 0
Skipped (treated as error) : 0
Edge jitter error (maybe fixed) : 0
Atom jitter error (maybe fixed) : 0
Drift error (maybe fixed) : 0
Dropped bytes error (maybe fixed) : 0
Duplicated bytes error (maybe fixed) : 0
Inconsistency in error sectors : 0

Track 12
Filename : /Users/Jason/Desktop/The Flashbulb - Red Extensions of Me/12 - Sensual Data.mp3

CRC32 hash (test run) : 73EC0AED
CRC32 hash : 73EC0AED
CRC32 hash (skip zero) : 72CAB1C2
AccurateRip signature : ABA8DD7F
->Accurately ripped! (confidence 2)
(matched with the different offset correction value;
calculated using an additional offset of 30;
the signature after correction is: 2F6F882E)
Statistics
Read error : 0
Skipped (treated as error) : 0
Edge jitter error (maybe fixed) : 0
Atom jitter error (maybe fixed) : 0
Drift error (maybe fixed) : 0
Dropped bytes error (maybe fixed) : 0
Duplicated bytes error (maybe fixed) : 0
Inconsistency in error sectors : 0

Track 13
Filename : /Users/Jason/Desktop/The Flashbulb - Red Extensions of Me/13 - Never Remember January.mp3

CRC32 hash (test run) : F5E122ED
CRC32 hash : F5E122ED
CRC32 hash (skip zero) : B34B4E28
AccurateRip signature : 879CD1EC
->Accurately ripped! (confidence 2)
(matched with the different offset correction value;
calculated using an additional offset of 30;
the signature after correction is: C017775D)
Statistics
Read error : 0
Skipped (treated as error) : 0
Edge jitter error (maybe fixed) : 0
Atom jitter error (maybe fixed) : 0
Drift error (maybe fixed) : 0
Dropped bytes error (maybe fixed) : 0
Duplicated bytes error (maybe fixed) : 0
Inconsistency in error sectors : 0

Track 14
Filename : /Users/Jason/Desktop/The Flashbulb - Red Extensions of Me/14 - Sunset Hamlin.mp3

CRC32 hash (test run) : 1EEB1C39
CRC32 hash : 1EEB1C39
CRC32 hash (skip zero) : A8BEC3CD
AccurateRip signature : ADF1CC1E
->Accurately ripped! (confidence 2)
(matched with the different offset correction value;
calculated using an additional offset of 30;
the signature after correction is: A6D682A6)
Statistics
Read error : 0
Skipped (treated as error) : 0
Edge jitter error (maybe fixed) : 0
Atom jitter error (maybe fixed) : 0
Drift error (maybe fixed) : 0
Dropped bytes error (maybe fixed) : 0
Duplicated bytes error (maybe fixed) : 0
Inconsistency in error sectors : 0

Track 15
Filename : /Users/Jason/Desktop/The Flashbulb - Red Extensions of Me/15 - Earthtone Morphine Battery.mp3

CRC32 hash (test run) : 26521506
CRC32 hash : 26521506
CRC32 hash (skip zero) : 108CE82B
AccurateRip signature : 41E86526
->Accurately ripped! (confidence 2)
(matched with the different offset correction value;
calculated using an additional offset of 30;
the signature after correction is: DFF3D824)
Statistics
Read error : 0
Skipped (treated as error) : 0
Edge jitter error (maybe fixed) : 0
Atom jitter error (maybe fixed) : 0
Drift error (maybe fixed) : 0
Dropped bytes error (maybe fixed) : 0
Duplicated bytes error (maybe fixed) : 0
Inconsistency in error sectors : 0

Track 16
Filename : /Users/Jason/Desktop/The Flashbulb - Red Extensions of Me/16 - Eight Empty Beds.mp3

CRC32 hash (test run) : AA67C5EA
CRC32 hash : AA67C5EA
CRC32 hash (skip zero) : EB0AD9F8
AccurateRip signature : 42B06DEC
->Accurately ripped! (confidence 2)
(matched with the different offset correction value;
calculated using an additional offset of 30;
the signature after correction is: 9DE4C580)
Statistics
Read error : 0
Skipped (treated as error) : 0
Edge jitter error (maybe fixed) : 0
Atom jitter error (maybe fixed) : 0
Drift error (maybe fixed) : 0
Dropped bytes error (maybe fixed) : 0
Duplicated bytes error (maybe fixed) : 0
Inconsistency in error sectors : 0

Track 17
Filename : /Users/Jason/Desktop/The Flashbulb - Red Extensions of Me/17 - Lucid Bass I.mp3

CRC32 hash (test run) : B3A96EA5
CRC32 hash : B3A96EA5
CRC32 hash (skip zero) : A16EAE79
AccurateRip signature : C9B3B750
->Accurately ripped! (confidence 2)
(matched with the different offset correction value;
calculated using an additional offset of 30;
the signature after correction is: 4D9F182A)
Statistics
Read error : 0
Skipped (treated as error) : 0
Edge jitter error (maybe fixed) : 0
Atom jitter error (maybe fixed) : 0
Drift error (maybe fixed) : 0
Dropped bytes error (maybe fixed) : 0
Duplicated bytes error (maybe fixed) : 0
Inconsistency in error sectors : 0

Track 18
Filename : /Users/Jason/Desktop/The Flashbulb - Red Extensions of Me/18 - Lucid Bass II.mp3

CRC32 hash (test run) : F5C911E0
CRC32 hash : F5C911E0
CRC32 hash (skip zero) : 9FE25953
AccurateRip signature : 5D7AE89D
->Rip may not be accurate.
Statistics
Read error : 0
Skipped (treated as error) : 0
Edge jitter error (maybe fixed) : 0
Atom jitter error (maybe fixed) : 0
Drift error (maybe fixed) : 0
Dropped bytes error (maybe fixed) : 0
Duplicated bytes error (maybe fixed) : 0
Inconsistency in error sectors : 0

No errors occurred

End of status report

related torrents

Torrent name

health leech seeds Size

Red Death Of Me

0 1 130.00 MB 0
 

comments (0)

Main Menu