Electronic

Soul Motel [Flac+Cue]

  • Download 5x Faster
  • Download torrent
  • Direct Download
  • Rate this torrent +  |  -
Soul Motel [Flac+Cue]

Anonymous and Free Direct Download


Torrent info

Name:Soul Motel [Flac+Cue]

Total Size: 445.15 MB

Magnet: Magnet Link

Seeds: 0

Leechers: 0

Stream: Watch Online @ Movie4u

Last Updated: 2010-07-18 01:43:02 (Update Now)

Torrent added: 2009-08-23 14:48:42



VPN For Torrents

Torrent Files List


Various - Soul Motel.flac (Size: 445.15 MB) (Files: 5)

 Various - Soul Motel.flac

444.32 MB

 Various - Soul Motel.cue

1.72 KB

 Soul Motel.log

2.64 KB

 Scan10004.JPG

563.12 KB

 Scan10003.JPG

281.47 KB
 

Announce URL: http://tracker.tntvillage.scambioetico.org:2710/announce

Torrent description

Autore: aa/vv
titolo:soul motel
Anno:2005
Genere: Electronic /Lounge/ambient
Etichetta:fonte cd /originale /cdda
Cover : Incluse
etichetta :Subarban Tracks

[color=green]:::->Tracklist<-:::[/color]

1 A Winter Night In A Summer House - Nima Gorji 07:54
2 Afgan Seeds - Dj Erba 04:42
3 Oriental Vibes - Lazy Alliance 05:48
4 Posidonia - Short Dual 06:54 15.83 Mb
5 Buddha Is The Passion - The Cooligans 05:24
6 Dolphins In Tarifa - Pedro Del Moral & David Ferrero 04:48
7 My Own Inspiration - Nuovo 06:23
8 Uva - Prompt 06:43
9 El Patio - Julian Poker 06:25
10 Dulces Naranjas - Aloenvera 04:48
11 Ethnicool - Prompt

similar to Buddha Bar
by Ramasutra




[CODE]
Exact Audio Copy V0.99 prebeta 3 from 28. July 2007

EAC extraction logfile from 18. May 2008, 13:49

Various / Soul Motel

Used drive : _NEC DVD_RW ND-3550A Adapter: 5 ID: 0

Read mode : Secure
Utilize accurate stream : Yes
Defeat audio cache : Yes
Make use of C2 pointers : No

Read offset correction : 48
Overread into Lead-In and Lead-Out : No
Fill up missing offset samples with silence : Yes
Delete leading and trailing silent blocks : No
Null samples used in CRC calculations : No
Used interface : Installed external ASPI interface

Used output format : User Defined Encoder
Selected bitrate : 768 kBit/s
Quality : High
Add ID3 tag : No
Command line compressor : C:\\\\Programmi\\\\Exact Audio Copy\\\\FLAC\\\\FLAC.EXE
Additional command line options : -6 -V -T \\\"ARTIST=%a\\\" -T \\\"TITLE=%t\\\" -T \\\"ALBUM=%g\\\" -T \\\"DATE=%y\\\" -T \\\"TRACKNUMBER=%n\\\" -T \\\"GENRE=%m\\\" -T \\\"COMMENT=%e\\\" %s -o %d


TOC of the extracted CD

Track | Start | Length | Start sector | End sector
---------------------------------------------------------
1 | 0:00.00 | 7:54.68 | 0 | 35617
2 | 7:54.68 | 4:42.71 | 35618 | 56838
3 | 12:37.64 | 5:48.34 | 56839 | 82972
4 | 18:26.23 | 6:54.72 | 82973 | 114094
5 | 25:21.20 | 5:24.30 | 114095 | 138424
6 | 30:45.50 | 4:47.73 | 138425 | 160022
7 | 35:33.48 | 6:23.71 | 160023 | 188818
8 | 41:57.44 | 6:43.14 | 188819 | 219057
9 | 48:40.58 | 6:25.12 | 219058 | 247944
10 | 55:05.70 | 4:47.73 | 247945 | 269542
11 | 59:53.68 | 7:41.57 | 269543 | 304174


Range status and errors

Selected range

Filename D:\\\\Documents and Settings\\\\salvo.SN116508160310\\\\Documenti\\\\Various - Soul Motel.wav

Peak level 100.0 %
Range quality 100.0 %
Test CRC 3EFA9BA2
Copy CRC 3EFA9BA2
Copy OK

No errors occurred


AccurateRip summary

Track 1 not present in database
Track 2 not present in database
Track 3 not present in database
Track 4 not present in database
Track 5 not present in database
Track 6 not present in database
Track 7 not present in database
Track 8 not present in database
Track 9 not present in database
Track 10 not present in database
Track 11 not present in database

None of the tracks are present in the AccurateRip database

End of status report





[/CODE]






related torrents

Torrent name

health leech seeds Size
 


comments (0)

Main Menu