Electronic

Siddharta (Spirit of Buddha Bar )vol 2 [Eac Flac Cue]tnt electronic

  • Download 5x Faster
  • Download torrent
  • Direct Download
  • Rate this torrent +  |  -

Torrent info

Name:Siddharta (Spirit of Buddha Bar )vol 2 [Eac Flac Cue]tnt electronic

Total Size: 973.75 MB

Magnet: Magnet Link

Seeds: 1

Leechers: 0

Stream: Watch Full Movie @ Movie4u

Last Updated: 2011-03-13 22:54:38 (Update Now)

Torrent added: 2009-08-23 14:46:20



VPN For Torrents

Torrent Files List


V[1].A. - Siddharta Vol.02 - Spirit Of Buddha Bar - Front.jpg (Size: 973.75 MB) (Files: 24)

 V[1].A. - Siddharta Vol.02 - Spirit Of Buddha Bar - Front.jpg

276.71 KB

 V[1].A. - Siddharta Vol.02 - Spirit Of Buddha Bar - CD (2-2).jpg

406.42 KB

 V[1].A. - Siddharta Vol.02 - Spirit Of Buddha Bar - CD (1-2).jpg

120.59 KB

 V[1].A. - Siddharta Vol.02 - Spirit Of Buddha Bar - Back.jpg

147.87 KB

 Euphoria cd 2

  Siddharta Spirit Of Buddha Bar II (CD02 Euphoria).log

2.92 KB

  Ravin - Siddharta Spirit Of Buddha Bar II (CD02 Euphoria).flac

502.82 MB

  Ravin - Siddharta Spirit Of Buddha Bar II (CD02 Euphoria).cue

1.72 KB

 Awakening cd 1

  Various - Siddharta - Spirrt Of The Buddha Bar Vol 2.cue

1.61 KB

  Speck Of Gold Afterlife.flac

34.64 MB

  Siddharta - Spirrt Of The Buddha Bar Vol 2.log

6.25 KB

  Sand System Lover's Nocturne.flac

24.85 MB

  Nitin Sawhney Falling Angels.flac

23.71 MB

  Karsh Kale Letting Go.flac

42.77 MB

  Hidden ID Afro Dub.flac

26.42 MB

  Gaudi Sufani.flac

32.83 MB

  Electromana In Flight.flac

32.01 MB

  Darluz Dusk.flac

30.73 MB

  Breeze Ratnabali.flac

26.59 MB

  Cantoma Moonsmith.flac

40.51 MB

  Bliss Sleep Will Come.flac

31.75 MB

  Bent King Wisp.flac

30.46 MB

  Baul Dimension Lake Palace.flac

33.78 MB

  Banzai Republic Never Feel.flac

32.05 MB

  A Tale - Bliss Cirque de Soleil.flac

26.89 MB
 

Announce URL: http://tracker.publicbt.com/announce

Torrent description

Autore: dj Ravin
Titolo: Siddharta vol.2
Anno:3 novembre 2003
Genere: Electronic /Ambient/Downtempo
Etichetta:fonte cd /originale /cdda
Cover : Incluse
etichetta :George V

:::->Tracklist<-:::

Titles on disc 1

1.: Sleep Will Come - Bliss
2.: Speck Of Gold - Afterlife & Cathy Battistessa
3.: Breeze (Paul Dimension & Murphy remix) - Ratnabali
4.: Tale Bliss (Mun chausen mix) - Cirque Du Soleil
5.: Never Feel - Banzai Republic
6.: Letting Go - Kale, Karsh
7.: Lover\'s Nocturne - Sand System
8.: In Flight - Electromana
9.: Falling Angels - Sawhney, Nitin
10.: Moonsmith - Cantoma
11.: Afro Dub - Hidden ID
12.: Sufani - Gaudi
13.: Lake Palace - Baul Dimension
14.: King Wisp - Bent
15.: Dusk - Dariuz

Titles on disc 2

1.: Luna - Ganga
2.: Tonite - Glasskirt
3.: Spirit Of Drums - Lonesome Echo & Mutabaraku
4.: Mamaso - Grasskirt
5.: Decourage (Charles Webster remix) - Bambino, Sekouba
6.: No Colo Do Mar - Lonesome Echo & Liliana Chachian
7.: Passage Of Time - H Foundation
8.: Carmen Rizzo (Toumany remix) - Cirque Du Soleil
9.: Da Hood (part 2) - Choc Electrique
10.: Oscillum - Cirque Du Soleil
11.: Enchantments - Zouk, Peter Da & Dj Simon
12.: Devotion - Native ID

Exact Audio Copy V0.99 prebeta 3 from 28. July 2007

EAC extraction logfile from 12. February 2008, 13:50

Various / Siddharta - Spirrt Of The Buddha Bar Vol 2

Used drive : _NEC DVD_RW ND-3550A Adapter: 5 ID: 0

Read mode : Secure
Utilize accurate stream : Yes
Defeat audio cache : Yes
Make use of C2 pointers : No

Read offset correction : 48
Overread into Lead-In and Lead-Out : No
Fill up missing offset samples with silence : Yes
Delete leading and trailing silent blocks : No
Null samples used in CRC calculations : No
Used interface : Installed external ASPI interface
Gap handling : Not detected, thus appended to previous track

Used output format : User Defined Encoder
Selected bitrate : 768 kBit/s
Quality : High
Add ID3 tag : No
Command line compressor : C:\\Programmi\\Exact Audio Copy\\FLAC\\FLAC.EXE
Additional command line options : -6 -V -T \"ARTIST=%a\" -T \"TITLE=%t\" -T \"ALBUM=%g\" -T \"DATE=%y\" -T \"TRACKNUMBER=%n\" -T \"GENRE=%m\" -T \"COMMENT=%e\" %s -o %d


TOC of the extracted CD

Track | Start | Length | Start sector | End sector
---------------------------------------------------------
1 | 0:00.00 | 5:38.26 | 0 | 25375
2 | 5:38.26 | 5:30.23 | 25376 | 50148
3 | 11:08.49 | 3:55.15 | 50149 | 67788
4 | 15:03.64 | 4:27.21 | 67789 | 87834
5 | 19:31.10 | 4:59.48 | 87835 | 110307
6 | 24:30.58 | 6:08.28 | 110308 | 137935
7 | 30:39.11 | 4:20.48 | 137936 | 157483
8 | 34:59.59 | 4:40.47 | 157484 | 178530
9 | 39:40.31 | 3:43.16 | 178531 | 195271
10 | 43:23.47 | 5:43.69 | 195272 | 221065
11 | 49:07.41 | 4:07.61 | 221066 | 239651
12 | 53:15.27 | 4:48.23 | 239652 | 261274
13 | 58:03.50 | 4:56.64 | 261275 | 283538
14 | 63:00.39 | 4:39.73 | 283539 | 304536
15 | 67:40.37 | 5:10.30 | 304537 | 327816


Track 1

Filename D:\\Documents and Settings\\salvo.SN116508160310\\Documenti\\Sleep Will Come.wav

Peak level 100.0 %
Track quality 99.9 %
Test CRC FRES5T78
Copy CRC FRES5T78
Track not present in AccurateRip database
Copy OK

Track 2

Track 2

Filename D:\\Documents and Settings\\salvo.SN116508160310\\Documenti\\Speak of gold.wav

Peak level 100.0 %
Track quality 99.9 %
Test CRC B0003E95
Copy CRC B0003E95
Track not present in AccurateRip database
Copy OK

Track 3

Filename D:\\Documents and Settings\\salvo.SN116508160310\\Documenti\\Breeze.wav

Peak level 100.0 %
Track quality 99.9 %
Test CRC TGR43ER1
Copy CRC TGR43ER1
Track not present in AccurateRip database
Copy OK

Track 4

Filename D:\\Documents and Settings\\salvo.SN116508160310\\Documenti\\A tale.wav

Peak level 100.0 %
Track quality 99.9 %
Test CRC FR3C44E7
Copy CRC FR3C44E7
Track not present in AccurateRip database
Copy OK

Track 5

Filename D:\\Documents and Settings\\salvo.SN116508160310\\Documenti\\Never feel.wav

Peak level 100.0 %
Track quality 99.9 %
Test CRC 234S4DF8
Copy CRC 234S4DF8
Track not present in AccurateRip database
Copy OK


Track 6

Filename D:\\Documents and Settings\\salvo.SN116508160310\\Documenti\\Letting go.wav

Peak level 100.0 %
Track quality 99.9 %
Test CRC 56F4SS1G
Copy CRC 56F4SS1G
Track not present in AccurateRip database
Copy OK


Track 7

Filename D:\\Documents and Settings\\salvo.SN116508160310\\Documenti\\Lover\'s nocturne.wav

Peak level 100.0 %
Track quality 99.9 %
Test CRC GE4G27R2
Copy CRC GE4G27R2
Track not present in AccurateRip database
Copy OK


Track 8

Filename D:\\Documents and Settings\\salvo.SN116508160310\\Documenti\\In flight.wav

Peak level 100.0 %
Track quality 99.9 %
Test CRC ER33TT3A
Copy CRC ER33TT3A
Track not present in AccurateRip database
Copy OK

Track 9

Filename D:\\Documents and Settings\\salvo.SN116508160310\\Documenti\\Falling angels.wav

Peak level 100.0 %
Track quality 99.9 %
Test CRC EE3S11H8
Copy CRC EE3S11H8
Track not present in AccurateRip database
Copy OK

Track 10

Filename D:\\Documents and Settings\\salvo.SN116508160310\\Documenti\\Moonsmith.wav

Peak level 100.0 %
Track quality 99.9 %
Test CRC RT3Q11F6
Copy CRC RT3Q11F6
Track not present in AccurateRip database
Copy OK

Track 11

Filename D:\\Documents and Settings\\salvo.SN116508160310\\Documenti\\Afro dub.wav

Peak level 100.0 %
Track quality 99.9 %
Test CRC PP5T61Y7
Copy CRC PP5T61Y7
Track not present in AccurateRip database
Copy OK


Track 12

Filename D:\\Documents and Settings\\salvo.SN116508160310\\Documenti\\Sufani.wav

Peak level 100.0 %
Track quality 99.9 %
Test CRC FT3S88E8
Copy CRC FT3S88E8
Track not present in AccurateRip database
Copy OK


Track 13

Filename D:\\Documents and Settings\\salvo.SN116508160310\\Documenti\\Lake palace.wav

Peak level 100.0 %
Track quality 99.9 %
Test CRC UU6Y55T4
Copy CRC UU6Y55T4
Track not present in AccurateRip database
Copy OK


Track 14

Filename D:\\Documents and Settings\\salvo.SN116508160310\\Documenti\\King wisp.wav

Peak level 100.0 %
Track quality 99.9 %
Test CRC YY6T54D4
Copy CRC YY6T54D4
Track not present in AccurateRip database
Copy OK


Track 15

Filename D:\\Documents and Settings\\salvo.SN116508160310\\Documenti\\Dusk.wav

Peak level 100.0 %
Track quality 99.9 %
Test CRC LJ7Y44E3
Copy CRC LJ7Y44E3
Track not present in AccurateRip database
Copy OK


15 tracks could be verified as accurate

There were errors

End of status report
----------------------------------------------------------------------
Exact Audio Copy V0.99 prebeta 3 from 28. July 2007

EAC extraction logfile from 12. February 2008, 18:53

Ravin / Siddharta: Spirit Of Buddha Bar II (CD02: Euphoria)

Used drive : _NEC DVD_RW ND-3550A Adapter: 5 ID: 0

Read mode : Secure
Utilize accurate stream : Yes
Defeat audio cache : Yes
Make use of C2 pointers : No

Read offset correction : 48
Overread into Lead-In and Lead-Out : No
Fill up missing offset samples with silence : Yes
Delete leading and trailing silent blocks : No
Null samples used in CRC calculations : No
Used interface : Installed external ASPI interface

Used output format : User Defined Encoder
Selected bitrate : 768 kBit/s
Quality : High
Add ID3 tag : No
Command line compressor : C:\\Programmi\\Exact Audio Copy\\FLAC\\FLAC.EXE
Additional command line options : -6 -V -T \"ARTIST=%a\" -T \"TITLE=%t\" -T \"ALBUM=%g\" -T \"DATE=%y\" -T \"TRACKNUMBER=%n\" -T \"GENRE=%m\" -T \"COMMENT=%e\" %s -o %d


TOC of the extracted CD

Track | Start | Length | Start sector | End sector
---------------------------------------------------------
1 | 0:00.00 | 6:03.24 | 0 | 27248
2 | 6:03.24 | 8:18.08 | 27249 | 64606
3 | 14:21.32 | 8:47.60 | 64607 | 104191
4 | 23:09.17 | 4:42.13 | 104192 | 125354
5 | 27:51.30 | 4:52.12 | 125355 | 147266
6 | 32:43.42 | 6:39.37 | 147267 | 177228
7 | 39:23.04 | 6:11.54 | 177229 | 205107
8 | 45:34.58 | 6:37.33 | 205108 | 234915
9 | 52:12.16 | 3:45.23 | 234916 | 251813
10 | 55:57.39 | 3:54.26 | 251814 | 269389
11 | 59:51.65 | 4:30.15 | 269390 | 289654
12 | 64:22.05 | 7:33.07 | 289655 | 323636
13 | 71:55.12 | 4:59.52 | 323637 | 346113


Range status and errors

Selected range

Filename D:\\Documents and Settings\\salvo.SN116508160310\\Documenti\\Ravin - Siddharta Spirit Of Buddha Bar II (CD02 Euphoria).wav


Peak level 100.0 %
Range quality 99.3 %
Test CRC 3184FB76
Copy CRC 3184FB76
Copy finished

There were errors


AccurateRip summary

Track 1 not present in database
Track 2 not present in database
Track 3 not present in database
Track 4 not present in database
Track 5 not present in database
Track 6 not present in database
Track 7 not present in database
Track 8 not present in database
Track 9 not present in database
Track 10 not present in database
Track 11 not present in database
Track 12 not present in database
Track 13 not present in database

None of the tracks are present in the AccurateRip database

End of status report





related torrents

Torrent name

health leech seeds Size
 


comments (0)

Main Menu

 

script data-cfasync="false" src="//d2ghscazvn398x.cloudfront.net/?cshgd=690275">