Other

GreenDay 1000 hours to kerplunk][Hectorbusinspector]

  • Download 5x Faster
  • Download torrent
  • Direct Download
  • Rate this torrent +  |  -
GreenDay 1000 hours to kerplunk][Hectorbusinspector]

Anonymous and free Direct Download 300GB+


Torrent info

Name:GreenDay 1000 hours to kerplunk][Hectorbusinspector]

Total Size: 700.21 MB

Magnet: Magnet Link

Seeds: 2

Leechers: 2

Stream: Watch Online @ Movie4u

Last Updated: 2010-03-16 20:33:18 (Update Now)

Torrent added: 2009-08-23 14:34:39



VPN For Torrents

Torrent Files List


1337x.org.txt (Size: 700.21 MB) (Files: 4)

 1337x.org.txt

0.68 KB

 Greeday.txt

3.94 KB

 1098919m1[1].jpg

7.78 KB

 GreenDay 1000 hours to kerplunk][Hectorbusinspector].avi

700.20 MB
 

Announce URL: http://genesis.1337x.org:1337/announce

Torrent description

Are Green Day the greatest punk band ever?

Kerplunk was the album that first gave the world notice that Green Day were on the way. Drawing on rare television and radio broadcasts of Green Day in performance
this powerful and penetrating film features Larry Livermore the man who discovered Green day who reflects on how the album was made and how the
band developed from unknowns to stand on the brink of stardom.

This is a hard analytical look at the making of the Green Day legend. This hard hitting film critique pulls no punches and deals frankly with the failures as well as the
successes of the band. In order to ensure editorial freedom the film has not been censored, viewed or approved by past or present management or members of Green Day.

This long awaited critical review Green Day's break through album, features rare live performances alongside analysis from a leading team of rock journalists and critics.


Features rare archive performances of: Judge's Daughter, Paper Lanterns, 1000 Hours, 409 In Your Coffee Maker, Welcome To Paradise, 2000 Light Years Away, Going To Pasalcqua
and many more
______________________________________________________________________________________________________________________________________________________________________

General
Complete name : GreenDay 1000 hours to kerplunk][Hectorbusinspector].avi
Format : AVI
Format/Info : Audio Video Interleave
File size : 700 MiB
Duration : 53mn 32s
Overall bit rate : 1 829 Kbps
Writing application : VirtualDubMod 1.5.4.1 (build 2178/release)
Writing library : VirtualDubMod build 2178/release

Video
ID : 0
Format : MPEG-4 Visual
Format profile : [email protected]
Format settings, BVOP : Yes
Format settings, QPel : No
Format settings, GMC : No warppoints
Format settings, Matrix : Custom
Codec ID : XVID
Codec ID/Hint : XviD
Duration : 53mn 32s
Bit rate : 1 692 Kbps
Width : 720 pixels
Height : 416 pixels
Display aspect ratio : 16/9
Frame rate : 29.970 fps
Resolution : 24 bits
Colorimetry : 4:2:0
Scan type : Progressive
Bits/(Pixel*Frame) : 0.188
Stream size : 648 MiB (93%)
Writing library : XviD 1.2.1 (UTC 2008-12-04)

Audio
ID : 1
Format : MPEG Audio
Format version : Version 1
Format profile : Layer 3
Codec ID : 55
Codec ID/Hint : MP3
Duration : 53mn 30s
Bit rate mode : Constant
Bit rate : 128 Kbps
Channel(s) : 2 channels
Sampling rate : 48.0 KHz
Resolution : 16 bits
Video delay : 936ms
Stream size : 49.0 MiB (7%)
Alignment : Split accross interleaves
Interleave, duration : 67 ms (2.00 video frames)
Interleave, preload duration : 504 ms
Writing library : LAME3.98r
Encoding settings : -m j -V 4 -q 2 -lowpass 17 -b 12
___________________________________________________________________________________________________________________________________________________________________________
Xvid
Please Enjoy.
___________________________________________________________________________________________________________________________________________________________________________



related torrents

Torrent name

health leech seeds Size
 


comments (0)

Main Menu