Other

ACDC Powerage (1978) [LOSSLESS FLAC][Tntvillage Scambioetico]

  • Download 5x Faster
  • Download torrent
  • Direct Download
  • Rate this torrent +  |  -
ACDC Powerage (1978) [LOSSLESS FLAC][Tntvillage Scambioetico]

Free and Direct Download with Usenet.nl 300GB+ free


Torrent info

Name:ACDC Powerage (1978) [LOSSLESS FLAC][Tntvillage Scambioetico]

Total Size: 297.08 MB

Magnet: Magnet Link

Seeds: 3

Leechers: 4

Stream: Watch Online @ Movie4u

Last Updated: 2010-12-19 08:08:20 (Update Now)

Torrent added: 2009-08-23 14:34:19





Torrent Files List


AC-DC - Powerage.log (Size: 297.08 MB) (Files: 13)

 AC-DC - Powerage.log

4.08 KB

 Cover_Back.jpg

5.08 MB

 Cover_Inside.jpg

6.24 MB

 Cover_Front.jpg

8.47 MB

 06 - AC-DC - What's next to the Moon.flac

23.34 MB

 03 - AC-DC - Gimme a bullet.flac

25.26 MB

 01 - AC-DC - Rock 'n' roll damnation.flac

26.05 MB

 09 - AC-DC - Kicked in the teeth.flac

27.90 MB

 05 - AC-DC - Sin City.flac

31.19 MB

 08 - AC-DC - Up to my neck in you.flac

32.91 MB

 07 - AC-DC - Gone shootin'.flac

33.01 MB

 04 - AC-DC - Riff Raff.flac

38.32 MB

 02 - AC-DC - Down payment blues.flac

39.31 MB
 

Announce URL: http://tracker.tntvillage.scambioetico.org:2710/announce

Torrent description

ACDC - Powerage (1978) [LOSSLESS FLAC][Tntvillage.Scambioetico]


Visit this link: More info on this torrent

Visit this link: All My Torrent



AC/DC - Powerage


by RDaneel



Image Link



[::Album Information::]

Title: Powerage
Years: 1978
Genre: Hard Rock
Production: Atlantic Records


[::Tracklist::]

1. Rock 'N' Roll Damnation (B.Scott, M.Young & A. Young) - 3:37
2. Down Payment Blues (B.Scott, M.Young & A. Young) - 6:04
3. Gimme A Bullet (B.Scott, M.Young & A. Young) - 3:22
4. Riff Raff (B.Scott, M.Young & A. Young) - 5:12
5. Sin City (B.Scott, M.Young & A. Young) - 4:45
6. What's Next To The Moon (B.Scott, M.Young & A. Young) - 3:32
7. Goone Shootin' (B.Scott, M.Young & A. Young) - 5:06
8. Up To My Neck In You (B.Scott, M.Young & A. Young) - 4:13
9. Kicked In The Teeth (B.Scott, M.Young & A. Young) - 3:53



[::Review::]

Powerage is the fifth studio album by Australian hard rock band AC/DC, released in May 1978. It is also AC/DC's fourth international studio album. All songs were written by Angus Young, Malcolm Young, and Bon Scott.

It was originally released on Atlantic Records, and reached #133 on Billboard's Pop Albums chart in the US, eventually going platinum there. Powerage was re-released in 2003 as part of the AC/DC Remasters series.
Powerage is the first AC/DC album to be released nearly simultaneously in both Australian and international markets, and the first to use just one cover image for both. It was also the first to feature the same track listing on all versions, with the exception of the European vinyl edition. This version included "Cold Hearted Man", a song that has not been officially released on any other AC/DC album, but which became more widely available through the box set of Bon Scott-era vinyl LP albums in 1987, the first reissue of a set first released in 1981. Within the 1987 box set, the song was packaged on a single sided 12" single. In some territories, Powerage omitted "Rock 'n' Roll Damnation".

"Sin City" was covered by the 80s Heavy metal band Twisted Sister, on their album Twisted Forever, in which Dee Snider changes a lyric: "Ain't got a hope in hell, that's Bon Scott's belief." The song has also been covered by the punk rock band The Offspring, Ugly Kid Joe and Bruce Dickinson.

"Gone Shootin'" was featured in the movie Beavis and Butt-head Do America. In 2007, a studio version of the song, with Brian Johnson on vocals, was included on the second disc of Plug Me In. The footage was taken from a recording session in 1996 at London's VH1 Studios.

Powerage marked the studio debut of bassist Cliff Williams. It was the band's last Bon Scott-era studio release to feature production work by Harry Vanda and George Young.



[::Technical data::]

Codec usato: Flac.

Tracce rippate da cd originale

Exact Audio Copy V0.99 prebeta 5 from 4. May 2009

EAC extraction logfile from 24. June 2009, 23:37

AC-DC / Powerage

Used drive : TSSTcorpCDDVDW SH-S202J Adapter: 1 ID: 0

Read mode : Secure
Utilize accurate stream : Yes
Defeat audio cache : No
Make use of C2 pointers : No

Read offset correction : 6
Overread into Lead-In and Lead-Out : No
Fill up missing offset samples with silence : Yes
Delete leading and trailing silent blocks : No
Null samples used in CRC calculations : Yes
Used interface : Installed external ASPI interface
Gap handling : Not detected, thus appended to previous track

Used output format : User Defined Encoder
Selected bitrate : 1024 kBit/s
Quality : High
Add ID3 tag : No
Command line compressor : C:\Programmi\Exact Audio Copy\FLAC\FLAC.EXE
Additional command line options : -8 -V -T "artist=%a" -T "title=%t" -T "album=%g" -T "date=%y" -T "tracknumber=%n" -T "genre=%m" %s


TOC of the extracted CD

Track | Start | Length | Start sector | End sector
---------------------------------------------------------
1 | 0:00.00 | 3:37.32 | 0 | 16306
2 | 3:37.32 | 6:03.58 | 16307 | 43589
3 | 9:41.15 | 3:21.57 | 43590 | 58721
4 | 13:02.72 | 5:12.20 | 58722 | 82141
5 | 18:15.17 | 4:45.13 | 82142 | 103529
6 | 23:00.30 | 3:32.00 | 103530 | 119429
7 | 26:32.30 | 5:05.57 | 119430 | 142361
8 | 31:38.12 | 4:13.43 | 142362 | 161379
9 | 35:51.55 | 3:53.50 | 161380 | 178904


Track 1

Filename C:\Musica\Musica_Rippata\AC-DC\Powerage\01 - AC-DC - Rock 'n' roll damnation.wav

Peak level 100.0 %
Track quality 100.0 %
Copy CRC E171F78C
Accurately ripped (confidence 60) [D8F995DF]
Copy OK

Track 2

Filename C:\Musica\Musica_Rippata\AC-DC\Powerage\02 - AC-DC - Down payment blues.wav

Peak level 100.0 %
Track quality 100.0 %
Copy CRC 0BE0161E
Accurately ripped (confidence 61) [67CBB6E0]
Copy OK

Track 3

Filename C:\Musica\Musica_Rippata\AC-DC\Powerage\03 - AC-DC - Gimme a bullet.wav

Peak level 100.0 %
Track quality 100.0 %
Copy CRC A6AE363E
Accurately ripped (confidence 61) [C5A27402]
Copy OK

Track 4

Filename C:\Musica\Musica_Rippata\AC-DC\Powerage\04 - AC-DC - Riff Raff.wav

Peak level 100.0 %
Track quality 100.0 %
Copy CRC 51CFBB07
Accurately ripped (confidence 62) [99258CAA]
Copy OK

Track 5

Filename C:\Musica\Musica_Rippata\AC-DC\Powerage\05 - AC-DC - Sin City.wav

Peak level 100.0 %
Track quality 100.0 %
Copy CRC EDD3EE0B
Accurately ripped (confidence 62) [08065718]
Copy OK

Track 6

Filename C:\Musica\Musica_Rippata\AC-DC\Powerage\06 - AC-DC - What's next to the Moon.wav

Peak level 100.0 %
Track quality 100.0 %
Copy CRC B0EF4B32
Accurately ripped (confidence 62) [BB0F6E93]
Copy OK

Track 7

Filename C:\Musica\Musica_Rippata\AC-DC\Powerage\07 - AC-DC - Gone shootin'.wav

Peak level 100.0 %
Track quality 100.0 %
Copy CRC 12CA86DC
Accurately ripped (confidence 62) [805525B7]
Copy OK

Track 8

Filename C:\Musica\Musica_Rippata\AC-DC\Powerage\08 - AC-DC - Up to my neck in you.wav

Peak level 100.0 %
Track quality 100.0 %
Copy CRC C7A5A32A
Accurately ripped (confidence 62) [A0961E94]
Copy OK

Track 9

Filename C:\Musica\Musica_Rippata\AC-DC\Powerage\09 - AC-DC - Kicked in the teeth.wav

Peak level 100.0 %
Track quality 100.0 %
Copy CRC 71701439
Accurately ripped (confidence 61) [460C2F95]
Copy OK


All tracks accurately ripped

No errors occurred

End of status report






Visit http://www.tntvillage.scambioetico.org/

related torrents

Torrent name

health leech seeds Size
 

comments (0)

Main Menu